<?xml version="1.0" standalone="no"?>
<!DOCTYPE svg PUBLIC "-//W3C//DTD SVG 1.1//EN" "http://www.w3.org/Graphics/SVG/1.1/DTD/svg11.dtd" >
<svg>
<metadata>
Created by FontForge 20090622 at Fri Apr 27 10:18:59 2018
 By deploy user
(c) Copyright 1997, 1998 The Font Bureau, Inc. and Leslie Cabarga. All rights reserved.
</metadata>
<defs>
<font id="Magneto-Bold" horiz-adv-x="1024" >
  <font-face 
    font-family="Magneto"
    font-weight="700"
    font-stretch="semi-expanded"
    units-per-em="2048"
    panose-1="4 3 8 5 5 8 2 2 13 2"
    ascent="1633"
    descent="-415"
    x-height="680"
    cap-height="1407"
    bbox="-1946 -621 3027 1859"
    underline-thickness="120"
    underline-position="-200"
    unicode-range="U+0020-U+F002"
  />
<missing-glyph 
d="M128 0v1633h768v-1633h-768zM256 128h512v1377h-512v-1377z" />
    <glyph glyph-name=".notdef" 
d="M128 0v1633h768v-1633h-768zM256 128h512v1377h-512v-1377z" />
    <glyph glyph-name="glyph1" horiz-adv-x="0" 
 />
    <glyph glyph-name="glyph2" horiz-adv-x="782" 
 />
    <glyph glyph-name="space" unicode=" " horiz-adv-x="782" 
 />
    <glyph glyph-name="exclam" unicode="!" horiz-adv-x="920" 
d="M1087 1407l-499 -965h-236l240 965h495zM602 143q0 -74 -56.5 -126t-137.5 -52q-80 0 -136.5 52.5t-56.5 125.5q0 74 56.5 126.5t138.5 52.5q79 0 135.5 -52.5t56.5 -126.5z" />
    <glyph glyph-name="quotedbl" unicode="&#x22;" horiz-adv-x="963" 
d="M965 1407l-232 -453l-182 -2l119 455h295zM563 1407l-231 -453l-182 -2l118 455h295z" />
    <glyph glyph-name="numbersign" unicode="#" horiz-adv-x="1368" 
d="M1528 975l-66 -148h-272l-88 -243h272l-67 -154h-256l-156 -432h-205l154 432h-289l-156 -432l-204 2l153 432h-321l71 152h299l88 243h-321l72 150h296l156 432h207l-156 -434h297l156 434h197l-154 -434h293zM989 827h-295l-88 -243h297z" />
    <glyph glyph-name="dollar" unicode="$" horiz-adv-x="1589" 
d="M1673 1143q0 -108 -85.5 -184t-207.5 -76q-82 0 -153 39l-82 -189l74 -112q95 -146 95 -275q0 -156 -131 -254q-122 -92 -292 -92l-72 -197h-106l71 197h-227l-70 -190h-106l70 192q-11 -2 -33 -2q-121 0 -207 76.5t-86 183.5q0 108 86 184t207 76q114 0 194 -67l84 227
q-195 208 -195 408q0 54 15 106q61 213 438 213h9l47 135h86l-47 -135h245l47 129h86l-47 -133q122 0 207.5 -76.5t85.5 -183.5zM1143 993q-56 65 -56 150q0 4 4.5 35.5t4.5 35.5q-35 8 -63 8q-114 0 -114 -115q0 -88 48 -149l112 -143zM834 512l-68 90l-84 -229
q29 -61 29 -113q0 -45 -21 -96q32 -8 61 -8q72 0 114 47q41 44 41 116q0 97 -72 193z" />
    <glyph glyph-name="percent" unicode="%" horiz-adv-x="1192" 
d="M647 1237q0 -80 -61.5 -136.5t-147.5 -56.5t-147.5 56.5t-61.5 134.5q0 80 61.5 136t147.5 56t147.5 -56t61.5 -134zM1167 1407l-888 -1407h-234l877 1407h245zM1040 164q0 -79 -61.5 -135t-147.5 -56t-147 56t-61 135q0 80 61 136t147 56q87 0 148 -56t61 -136z" />
    <glyph glyph-name="ampersand" unicode="&#x26;" horiz-adv-x="1585" 
d="M1587 160q0 -76 -76 -122q-64 -38 -145 -38h-883q-169 0 -280 63q-137 79 -137 236q0 188 179 327q124 97 363 185l-78 225q-12 36 -12 74q0 157 178 246q142 71 316 71q428 0 428 -284q0 -141 -140 -245q-85 -64 -311 -161l205 -577h393zM1157 1128q0 51 -39 81t-94 30
q-51 0 -100 -32q-58 -37 -58 -92q0 -18 6 -36l50 -149q235 105 235 198zM836 160l-154 440q-225 -123 -225 -278q0 -162 211 -162h168z" />
    <glyph glyph-name="quotesingle" unicode="'" horiz-adv-x="492" 
d="M563 1407l-231 -453l-182 -2l118 455h295z" />
    <glyph glyph-name="parenleft" unicode="(" horiz-adv-x="778" 
d="M1055 1536q-188 -148 -354 -388q-181 -260 -218 -470q-28 -163 -28 -307q0 -329 131 -574h-158q-242 265 -242 692q0 638 670 1047h199z" />
    <glyph glyph-name="parenright" unicode=")" horiz-adv-x="778" 
d="M733 844q0 -106 -16 -197q-91 -504 -651 -846h-199q186 147 353 385q182 262 218 469q28 159 28 308q0 325 -130 573h158q239 -264 239 -692z" />
    <glyph glyph-name="asterisk" unicode="*" horiz-adv-x="967" 
d="M813 1214h-147l100 -90l-88 -80l-98 91v-121h-125v127l-105 -97l-88 80l100 90h-129v113h134l-99 88l88 80l99 -90v133h125v-127l92 84l88 -80l-98 -88h151v-113z" />
    <glyph glyph-name="plus" unicode="+" horiz-adv-x="1229" 
d="M1263 791l-93 -254h-442l-164 -447h-278l162 447h-443l92 254h443l166 446h280l-166 -446h443z" />
    <glyph glyph-name="comma" unicode="," horiz-adv-x="561" 
d="M584 252l-246 -387h-154l138 387h262z" />
    <glyph glyph-name="hyphen" unicode="-" horiz-adv-x="1042" 
d="M809 582l-88 -254h-674l88 254h674z" />
    <glyph glyph-name="hyphen" unicode="&#x2010;" horiz-adv-x="1042" 
d="M809 582l-88 -254h-674l88 254h674z" />
    <glyph glyph-name="period" unicode="." horiz-adv-x="623" 
d="M584 129q0 -66 -51 -113t-123 -47q-73 0 -123.5 47t-50.5 113t50.5 113t123.5 47q72 0 123 -47t51 -113z" />
    <glyph glyph-name="slash" unicode="/" horiz-adv-x="999" 
d="M1155 1407l-770 -1407h-215l770 1407h215z" />
    <glyph glyph-name="zero" unicode="0" horiz-adv-x="1581" 
d="M1466 788q0 -347 -202 -572q-210 -232 -553 -232q-276 0 -443.5 168.5t-167.5 445.5q0 345 204 572q211 235 552 235q277 0 443.5 -170t166.5 -447zM1038 903q0 297 -174 297q-170 0 -269 -291q-75 -220 -75 -436q0 -295 176 -295q171 0 269 290q73 217 73 435z" />
    <glyph glyph-name="one" unicode="1" horiz-adv-x="954" 
d="M846 1122l-393 -1122h-363l395 1153h-317l133 254h391q78 0 125 -45q50 -48 50 -129q0 -51 -21 -111z" />
    <glyph glyph-name="two" unicode="2" horiz-adv-x="1468" 
d="M1343 1065q0 -269 -274 -500q-231 -195 -526 -274h684l-103 -291h-1044l86 285q224 91 459 295q282 245 282 434q0 196 -151 196h-13q5 -28 5 -43q0 -102 -83 -172q-78 -67 -184 -67q-104 0 -182 67q-82 70 -82 172q0 167 156 225q105 40 352 40q258 0 382 -43
q236 -81 236 -324z" />
    <glyph glyph-name="three" unicode="3" horiz-adv-x="1421" 
d="M1421 1407l-346 -504q104 -55 177 -159q79 -111 79 -222q0 -236 -177 -379q-148 -119 -397 -158q-158 -25 -362 -16q-106 5 -184 72q-82 71 -82 174q0 104 82 174q78 66 182 66q106 0 184 -66q82 -70 82 -174q0 -48 -18 -88q112 6 184 96q70 87 70 209q0 142 -126 242
q-106 83 -228 94l290 354h-546l110 285h1026z" />
    <glyph glyph-name="four" unicode="4" horiz-adv-x="1577" 
d="M1458 680l-104 -285h-258l-144 -395h-360l141 395h-522q-152 0 -152 115q0 52 41 96l328 355q-79 24 -128.5 86.5t-49.5 140.5q0 104 82 174q79 66 184 65q112 0 190 -74.5t78 -185.5q0 -92 -84 -182l-284 -305h405l266 727h363l-254 -727h262z" />
    <glyph glyph-name="five" unicode="5" horiz-adv-x="1399" 
d="M1409 1407l-121 -285h-514l-88 -241h141q233 0 353 -99q129 -107 131 -262q1 -167 -142 -313q-234 -241 -654 -241q-90 0 -181 14q-104 14 -173 82t-69 161q0 99 77.5 169.5t186.5 70.5q111 0 189 -70.5t78 -169.5q0 -43 -17 -86q119 15 203 116q80 97 80 210
q0 104 -84 169q-95 75 -275 75h-266l246 700h899z" />
    <glyph glyph-name="six" unicode="6" horiz-adv-x="1481" 
d="M1403 539q0 -265 -205 -423q-188 -145 -461 -145q-254 0 -431 130q-197 144 -197 388q0 295 256 558q199 202 520 360h289q-294 -225 -435 -399q-215 -265 -215 -535q0 -129 63 -212q70 -93 195 -93q200 0 258 197q7 22 17 45q-105 1 -182 67q-82 70 -82 172
q0 104 82 174q78 66 184 66q154 0 249 -97.5t95 -252.5z" />
    <glyph glyph-name="seven" unicode="7" horiz-adv-x="1247" 
d="M1229 1407l-314 -727h191l-76 -160h-184l-223 -520h-361l227 520h-215l76 160h201l199 442h-439l-51 -104h-199l158 389h1010z" />
    <glyph glyph-name="eight" unicode="8" horiz-adv-x="1481" 
d="M1415 1034q0 -179 -186 -299q112 -129 112 -282q0 -223 -206 -359q-181 -119 -416 -119q-272 0 -430 102q-191 121 -191 376q0 259 271 409q-54 79 -54 172q0 185 190 300q163 98 359 98q224 0 371 -85q180 -105 180 -313zM1053 1118q0 51 -34 84t-83 33
q-108 0 -150 -121l-88 -258h117q108 0 157 57q28 33 70 150q11 28 11 55zM961 680h-187q-85 0 -139 -57q-40 -44 -72 -134l-49 -151q-12 -34 -12 -64q0 -55 47 -90q43 -32 102 -32q132 0 178 137z" />
    <glyph glyph-name="nine" unicode="9" horiz-adv-x="1348" 
d="M1253 897q0 -293 -239 -548q-200 -212 -506 -347h-309q302 223 432 447q-223 3 -368 121q-157 127 -157 343q0 223 159 368q153 140 380 144q608 13 608 -528zM872 1067q0 199 -137 199q-102 0 -172 -146q-59 -121 -59 -237q0 -90 57 -167q61 -81 152 -95q57 64 107 203
q52 143 52 243z" />
    <glyph glyph-name="colon" unicode=":" horiz-adv-x="778" 
d="M637 549q0 -66 -51.5 -113t-124.5 -47q-71 0 -121.5 47t-50.5 113t51 113t123 47t123 -47t51 -113zM543 129q0 -66 -51 -113t-123 -47q-73 0 -123.5 47t-50.5 113t50.5 113t123.5 47q72 0 123 -47t51 -113z" />
    <glyph glyph-name="semicolon" unicode=";" horiz-adv-x="778" 
d="M657 549q0 -66 -51 -113t-125 -47q-72 0 -123 47t-51 113t51.5 113t124.5 47q72 0 123 -47t51 -113zM551 252l-246 -387h-153l137 387h262z" />
    <glyph glyph-name="less" unicode="&#x3c;" horiz-adv-x="1229" 
d="M1290 1053l-43 -203l-741 -291l618 -291l-43 -202l-864 409l37 168z" />
    <glyph glyph-name="equal" unicode="=" horiz-adv-x="1229" 
d="M1331 879q-28 -96 -114 -160q-80 -60 -164 -60h-701l119 220h860zM1300 547l-118 -219h-860q26 90 129 159q88 60 149 60h700z" />
    <glyph glyph-name="greater" unicode="&#x3e;" horiz-adv-x="1229" 
d="M1278 643l-37 -168l-1036 -409l43 202l741 291l-618 291l43 203z" />
    <glyph glyph-name="question" unicode="?" horiz-adv-x="1141" 
d="M1223 1059q-2 -184 -196 -300q-111 -67 -345 -130l-84 -187h-356l69 189q28 74 120 105l151 38q270 90 270 289q0 115 -78 151q-49 23 -174 21q10 -38 10 -68q0 -98 -78 -168.5t-188 -70.5t-188 70.5t-78 168.5q0 104 83 174q79 66 183 66h373q509 0 506 -348zM571 143
q0 -74 -56.5 -126t-137.5 -52q-80 0 -136.5 52.5t-56.5 125.5q0 74 57 126.5t138 52.5q80 0 136 -52.5t56 -126.5z" />
    <glyph glyph-name="at" unicode="@" horiz-adv-x="1798" 
d="M1731 879q0 -200 -135 -339q-137 -143 -339 -143h-239q-146 0 -146 92q-92 -108 -245 -108q-105 0 -167.5 62.5t-62.5 166.5q0 189 147 298q134 100 337 100h497l-168 -467h111q105 0 189 111q79 106 79 222q0 213 -188 332q-161 101 -387 101q-306 0 -538 -189
q-247 -200 -247 -500q0 -242 186 -382q167 -125 419 -125q274 0 509 155l113 -80q-260 -206 -641 -206q-293 0 -510 161q-237 178 -237 461q0 54 8 100q59 334 348 534q270 187 620 187q286 0 472 -126q215 -146 215 -418zM999 864h-192q-19 -53 -80 -237q-6 -18 -6 -32
q0 -45 63 -54h101z" />
    <glyph glyph-name="A" unicode="A" horiz-adv-x="2257" 
d="M2773 680q-51 -160 -244 -160h-594l-188 -520h-358l188 520h-307q-504 -608 -985 -608q-140 0 -236 52q-121 66 -121 194q0 109 90 213q145 167 439 247q230 62 508 62h194l606 727h482l-258 -727h784zM1841 1241l-438 -561h223zM1024 520q-375 0 -526 -108
q-125 -90 -125 -191q0 -86 90 -86q124 0 310 140q163 121 251 245z" />
    <glyph glyph-name="B" unicode="B" horiz-adv-x="1686" 
d="M1827 1092q0 -147 -155 -275q-93 -77 -283 -170q77 -133 77 -241q0 -223 -288 -330q-206 -76 -480 -76h-520l361 1026h360l-307 -866h51q175 0 296 40q179 61 179 199q0 44 -40 105.5t-40 89.5q0 14 2 20q20 44 109 86q123 59 180 109q96 83 96 192q0 154 -235 154h-1170
l154 252h1167q230 0 345 -62q141 -76 141 -253z" />
    <glyph glyph-name="C" unicode="C" horiz-adv-x="1546" 
d="M1593 1163q0 -105 -83 -177q-79 -68 -185 -68q-107 0 -187 68q-83 72 -83 177q0 35 8 60q-214 -2 -389 -222q-164 -208 -164 -428q0 -413 539 -413h503q-31 -160 -243 -160h-369q-345 0 -560 100q-295 138 -292 449q2 174 107 348q143 238 406 376q255 134 542 134h200
q97 0 173.5 -74t76.5 -170z" />
    <glyph glyph-name="D" unicode="D" horiz-adv-x="1780" 
d="M1745 940q0 -183 -127 -387q-168 -269 -488 -417q-295 -136 -634 -136h-330l362 1026h361l-307 -866q197 0 390.5 121t282.5 299q80 157 80 262q0 172 -96 247q-86 66 -264 66h-967l154 252h968q251 0 418 -106q197 -125 197 -361z" />
    <glyph glyph-name="E" unicode="E" horiz-adv-x="1587" 
d="M1642 1167q0 -99 -77.5 -169t-188.5 -70q-109 0 -186.5 70t-77.5 169q0 46 14 80h-118q-57 0 -96.5 -47.5t-39.5 -105.5q0 -47 32 -134.5t32 -134.5q0 -56 -116 -112q-167 -80 -216 -121q-117 -98 -117 -258q0 -120 136 -156q67 -18 233 -18h729q-13 -77 -91 -122
q-68 -38 -153 -38h-821q-184 0 -311 63q-164 82 -164 246q0 178 178 325q146 120 344 175q-57 125 -57 227q0 195 206 294q159 77 378 77h305q101 0 172 -71.5t71 -168.5z" />
    <glyph glyph-name="F" unicode="F" horiz-adv-x="1679" 
d="M1966 1407l-154 -252h-354l-166 -475h322q-14 -158 -191 -160l-188 -2l-78 -221q-104 -297 -412 -297h-700q44 112 77 159q58 83 136 83q12 0 25 -2l467 -74l346 989h-572q-129 0 -232 -75q-112 -82 -112 -206q0 -86 58 -98q19 93 98 149q74 54 170 54q104 0 180 -64
q82 -68 82 -176q0 -120 -98 -187q-84 -58 -209 -58q-193 0 -321 90q-142 101 -142 278q0 265 210 414q185 131 460 131h1298z" />
    <glyph glyph-name="G" unicode="G" horiz-adv-x="1765" 
d="M1686 1165q0 -104 -83 -173q-78 -66 -184 -66q-105 0 -184 66q-82 69 -82 173q0 32 10 70h-22q-241 0 -432 -218q-185 -210 -185 -454q0 -205 153 -311q132 -92 347 -92l186 520h373l-248 -709q-79 -223 -378 -223q-35 0 -80 2l92 250q-348 0 -567 101q-298 138 -298 444
q0 170 105 346q147 247 424 386q261 130 563 130h223q104 0 183 -69q84 -71 84 -173z" />
    <glyph glyph-name="H" unicode="H" horiz-adv-x="2251" 
d="M2748 680q-28 -160 -221 -160h-592l-184 -520h-360l186 520h-338q-284 -697 -895 -698q-165 0 -271 65q-128 78 -128 234q0 122 82 246q207 313 761 313h146l309 879h359l-314 -879h344l256 727h361l-258 -727h757zM877 520h-29q-197 0 -354 -101q-181 -116 -181 -302
q0 -129 115 -129q144 0 285 202q105 151 164 330z" />
    <glyph glyph-name="I" unicode="I" horiz-adv-x="1473" 
d="M1550 1407l-391 -1110q-104 -297 -414 -297h-700q44 112 77 159q58 83 136 83q12 0 25 -2l467 -74l350 989h-578q-128 0 -230 -75q-112 -82 -112 -206q0 -86 58 -98q19 93 98 149q74 54 170 54q104 0 180 -64q82 -68 82 -176q0 -120 -98 -187q-84 -58 -209 -58
q-193 0 -321 90q-142 101 -142 278q0 265 210 414q185 131 462 131h880z" />
    <glyph glyph-name="J" unicode="J" horiz-adv-x="1470" 
d="M1548 1407l-346 -987q-127 -363 -390 -560q-223 -167 -464 -167q-149 0 -244 67q-98 69 -98 183q0 99 78 169t188 70q111 0 189 -70t78 -169q0 -17 -4 -41q96 41 168 171q40 72 96 230l301 852h-576q-129 0 -232 -75q-112 -82 -112 -206q0 -86 58 -98q19 93 98 149
q74 54 170 54q104 0 180 -64q82 -68 82 -176q0 -120 -98 -187q-84 -58 -209 -58q-193 0 -321 90q-142 101 -142 278q0 265 210 414q185 131 460 131h880z" />
    <glyph glyph-name="K" unicode="K" horiz-adv-x="1671" 
d="M1987 1407l-818 -727h76q140 0 140 -123q0 -41 -19 -94l-106 -303h415q-46 -160 -291 -160h-350q-144 0 -144 107q0 25 9 53l133 399l-522 -465q-106 -94 -244 -94h-168l408 1155h-559l153 252h623q171 0 171 -129q0 -44 -20 -102l-243 -721l1044 952h312z" />
    <glyph glyph-name="L" unicode="L" horiz-adv-x="2109" 
d="M2195 1186q0 -103 -83 -173q-79 -67 -183 -67q-117 0 -195 77t-69 194q-32 4 -96 -25q-142 -64 -174 -475q-33 -406 -473 -557h1185q-43 -160 -268 -160h-1835q84 242 207 242q55 0 191 -44t196 -44q172 0 281 313l159 461q174 502 867 502q116 0 199 -62q91 -69 91 -182
z" />
    <glyph glyph-name="M" unicode="M" horiz-adv-x="2312" 
d="M2314 160q-42 -160 -278 -160h-359q-168 0 -168 97q0 34 21 89l166 432l-496 -544q-80 -89 -175 -89q-18 0 -38 3q-114 13 -114 114q0 39 18 84l246 635l-617 -745q-62 -76 -182 -76h-203l404 1155h-555l151 252h668q138 0 138 -101q0 -39 -19 -94l-215 -620l430 487
q82 94 126 122q73 46 189 46q33 0 69 -23q55 -36 55 -107q0 -44 -22 -99l-194 -504l385 387q82 82 109 99q47 27 135 26q35 0 74 -26q60 -39 60 -114q0 -43 -20 -95l-239 -631h450z" />
    <glyph glyph-name="N" unicode="N" horiz-adv-x="1954" 
d="M2335 1198q0 -104 -83 -173q-78 -67 -184 -67q-107 0 -182 66l-332 -922q-47 -133 -163 -133q-156 0 -185 135l-166 787l-225 -666q-35 -104 -134 -166q-93 -59 -206 -59h-475q44 110 75 155q59 87 138 87q48 0 145.5 -20.5t147.5 -20.5q105 0 149 129l308 893
q39 116 67 149q47 60 148 60q151 0 194 -213l137 -684l207 581q115 322 350 322q106 0 185 -66q84 -70 84 -174z" />
    <glyph glyph-name="O" unicode="O" horiz-adv-x="1815" 
d="M1726 893q0 -370 -291 -644q-282 -265 -634 -265q-259 0 -409 140t-150 384q0 126 59 270q56 137 148 248h440q-113 -100 -187 -256q-75 -160 -75 -307q0 -121 50 -205q60 -100 173 -100q188 0 340 243q135 218 135 418q0 159 -92 247.5t-254 88.5h-987l153 252h920
q280 0 455 -114q206 -135 206 -400z" />
    <glyph glyph-name="P" unicode="P" horiz-adv-x="1640" 
d="M1804 1073q0 -296 -409 -508q-273 -143 -650 -217l-122 -348h-365l365 1026h362l-172 -481q194 44 344 137q209 131 217 305q5 112 -75 147q-48 21 -173 21h-1022l156 252h1030q226 0 345 -56q169 -79 169 -278z" />
    <glyph glyph-name="Q" unicode="Q" horiz-adv-x="1649" 
d="M1653 160q-40 -160 -246 -160h-1407q97 244 221 244q16 0 33 -4l334 -80q128 0 291 139q153 131 231 289q84 171 84 312q0 163 -110 259q-98 86 -242 86q-141 0 -240 -69q-110 -78 -110 -211q81 88 204 88q111 0 189 -70.5t78 -169.5q0 -104 -84 -174q-78 -66 -183 -66
q-185 0 -295 127q-100 116 -100 285q0 192 156 327q175 152 475 152q329 0 505 -160q156 -143 156 -374q0 -252 -185 -471q-197 -234 -503 -299h748z" />
    <glyph glyph-name="R" unicode="R" horiz-adv-x="1761" 
d="M1761 160q-4 -75 -70 -120q-60 -40 -139 -40h-385q-79 0 -120 42q-27 27 -68 118l-197 436q37 7 171 57q130 48 163 66q199 103 199 258q0 178 -252 178h-1020l156 252h1007q543 0 543 -346q0 -293 -565 -512l180 -389h397zM924 1026l-365 -1026h-360l362 1026h363z" />
    <glyph glyph-name="S" unicode="S" horiz-adv-x="1972" 
d="M2247 1165q0 -99 -78.5 -169t-188.5 -70t-188 70t-78 169q0 23 8 60q-45 4 -57 4q-152 0 -152 -127q0 -65 89.5 -291t89.5 -354q0 -274 -303 -411q-226 -101 -529 -101q-277 0 -491 77q-301 108 -301 332q0 326 555 326h381l73 -160h-297q-112 0 -195 -39
q-108 -51 -108 -151q0 -113 149 -177q115 -49 246 -49q166 0 277 73q129 84 129 241q0 108 -82 310t-82 314q0 365 621 365h247q102 0 182 -69q83 -73 83 -173z" />
    <glyph glyph-name="T" unicode="T" horiz-adv-x="1518" 
d="M1966 1407l-135 -252h-371l-305 -858q-106 -297 -410 -297h-700q44 112 77 159q58 83 136 83q12 0 25 -2l467 -74l350 989h-578q-128 0 -230 -75q-112 -82 -112 -206q0 -86 58 -98q29 101 109 157q73 50 165 50q117 0 189 -75q67 -70 67 -167q0 -103 -79 -171
q-89 -78 -249 -78q-175 0 -300 97q-142 110 -142 300q0 205 165 352q186 166 507 166h1296z" />
    <glyph glyph-name="U" unicode="U" horiz-adv-x="1634" 
d="M1665 1186q0 -115 -53 -295q-46 -155 -107 -283q-161 -339 -315 -472q-198 -171 -533 -171q-176 0 -284 75q-125 87 -125 255q0 77 28 158l250 702h-559l152 252h858l-328 -936q-26 -76 -26 -143q0 -76 50 -119q47 -41 124 -41q273 0 477 453q80 176 102 307
q-118 0 -205 70q-94 75 -94 190q0 111 92 187q87 73 201 73q121 0 205 -70q90 -74 90 -192z" />
    <glyph glyph-name="V" unicode="V" horiz-adv-x="1384" 
d="M1554 1194q-1 -132 -92 -244l-643 -790q-130 -160 -293 -160h-256l101 1155h-463l149 252h484q81 0 136 -50t55 -127q0 -10 -1 -20l-104 -1017l612 763q-94 18 -155.5 83.5t-61.5 154.5q0 99 78 169.5t188 70.5q111 0 189 -71t77 -169z" />
    <glyph glyph-name="W" unicode="W" horiz-adv-x="2030" 
d="M2316 1407l-708 -1280q-71 -127 -217 -127h-125v889l-492 -766q-79 -123 -233 -123h-142l105 1155h-465l154 252h442q81 0 139 -37q78 -51 78 -159q0 -16 -2 -33l-72 -678l477 757q51 81 91 110q56 40 153 40h98v-887l480 887h239z" />
    <glyph glyph-name="X" unicode="X" horiz-adv-x="1841" 
d="M2009 1223q0 -104 -82 -174q-78 -66 -182 -66q-70 0 -139.5 36.5t-106.5 94.5l-338 -354l158 -600h522q-13 -79 -95 -123q-69 -37 -157 -37h-393q-97 0 -168 59q-66 57 -94 152l-68 231l-319 -333q-130 -136 -279 -136q-105 0 -184 66q-82 70 -82 174q0 100 78 170
t188 70q166 0 240 -138l305 320l-123 520h-497l151 252h420q260 0 305 -217l49 -236l299 312q108 112 142 137q81 59 184 59q106 0 184 -66q82 -69 82 -173z" />
    <glyph glyph-name="Y" unicode="Y" horiz-adv-x="1726" 
d="M1839 1407l-424 -1217q-31 -88 -107 -139t-169 -51h-774q24 90 93 141.5t163 51.5h432l211 593l-301 -319q-93 -98 -248 -98q-90 0 -152 40q-71 46 -71 132q0 41 14 82l211 591h-180q4 -28 4 -47q0 -99 -77.5 -169t-187.5 -70t-188 70t-78 169q0 104 82 174q78 66 182 66
h650q69 0 112 -40.5t43 -109.5q0 -39 -14 -79l-213 -598l588 753q23 30 74 52t90 22h235z" />
    <glyph glyph-name="Z" unicode="Z" horiz-adv-x="1597" 
d="M1950 680q-48 -160 -187 -160h-616q2 -14 2 -43q0 -291 -295 -526q-278 -221 -578 -221q-141 0 -225 79.5t-76 215.5q18 268 251 451q205 162 479 196q-53 104 -170 194l552 289h-751l151 252h1041q1 -117 -29 -184q-36 -80 -131 -131l-403 -218q107 -84 145 -194h840z
M791 485q-4 15 -17 35q-87 -10 -196 -81q-103 -66 -162 -142q-154 -198 -154 -322q0 -88 78 -88q144 0 299 183.5t155 364.5q0 26 -3 50z" />
    <glyph glyph-name="bracketleft" unicode="[" horiz-adv-x="754" 
d="M969 1511l-37 -104h-60q-59 0 -90 -34q-23 -24 -47 -93l-440 -1257q-18 -53 -18 -81q0 -46 69 -46h60l-39 -105h-240q-159 0 -159 112q0 38 18 89l460 1319q71 200 283 200h240z" />
    <glyph glyph-name="backslash" unicode="\" horiz-adv-x="569" 
d="M709 -20h-213l-635 1552h213z" />
    <glyph glyph-name="bracketright" unicode="]" horiz-adv-x="754" 
d="M842 1313l-461 -1319q-70 -201 -283 -201h-239l37 105h59q60 0 91 33q22 25 46 94l440 1257q19 53 19 81q0 46 -70 46h-59l39 104h239q160 0 160 -111q0 -38 -18 -89z" />
    <glyph glyph-name="asciicircum" unicode="^" horiz-adv-x="1434" 
d="M1145 365h-207l-141 360l-301 -360h-228l469 573h193z" />
    <glyph glyph-name="underscore" unicode="_" horiz-adv-x="1384" 
d="M1759 -338q0 -101 -131 -192q-127 -88 -252 -88h-1929q99 280 551 280h1761z" />
    <glyph glyph-name="grave" unicode="`" 
d="M410 801h-113l-242 309h269z" />
    <glyph glyph-name="a" unicode="a" horiz-adv-x="1290" 
d="M1292 160q-48 -160 -245 -160h-379q-162 0 -162 104q-109 -124 -268 -124q-117 0 -190 72t-73 188q0 209 160 330q145 110 359 110h571l-188 -520h415zM647 520h-221l-70 -233q-6 -22 -6 -40q0 -87 170 -87z" />
    <glyph glyph-name="b" unicode="b" horiz-adv-x="1198" 
d="M1810 680q-66 -160 -221 -160h-540q-39 -286 -295 -421q-188 -99 -439 -99h-182q-49 0 -86 24q-49 32 -49 97q0 37 16 84l357 1001h360l-373 -1044q215 -5 306 172q-93 58 -93 158q0 78 60.5 133t144.5 55h1034z" />
    <glyph glyph-name="c" unicode="c" horiz-adv-x="1237" 
d="M1251 160q-22 -78 -92 -121q-64 -39 -149 -39h-602q-172 0 -289 58q-148 73 -148 220q0 16 2 33q20 179 186 280q146 89 345 89h252q85 0 145 -54t60 -132q0 -79 -60.5 -134t-144.5 -55q-85 0 -144.5 55.5t-58.5 135.5v24h-121l-78 -221q-10 -28 -10 -51q0 -88 139 -88
h768z" />
    <glyph glyph-name="d" unicode="d" horiz-adv-x="1333" 
d="M1337 160q-50 -160 -245 -160h-381q-165 0 -162 104q-110 -129 -295 -129q-121 0 -196 68q-78 70 -78 190q0 217 176 340q155 107 381 107h208l187 528h364l-372 -1048h413zM690 520h-254l-76 -215q-10 -30 -10 -54q0 -67 85 -85q30 -6 128 -6z" />
    <glyph glyph-name="e" unicode="e" horiz-adv-x="1251" 
d="M1257 160q-21 -77 -96 -121q-67 -39 -153 -39h-557q-486 0 -486 293q0 188 166 295q143 92 340 92h145q127 0 223 -39q128 -52 134 -158q5 -107 -103 -178h-331l108 215h-211l-82 -241q-7 -21 -7 -38q0 -81 130 -81h780z" />
    <glyph glyph-name="f" unicode="f" horiz-adv-x="1051" 
d="M1509 680q-32 -160 -258 -160h-665q92 -85 84 -299q-10 -253 -270 -451q-234 -179 -449 -173q-41 1 -73 32t-32 74q0 17 7 35l253 715q-51 14 -86 54q-40 44 -40 101q0 35 16 72h188l187 526h360l-221 -526h999zM401 201q0 82 -53 123l-256 -576q81 42 170 144
q87 98 113 174.5t26 134.5z" />
    <glyph glyph-name="g" unicode="g" horiz-adv-x="1286" 
d="M1298 160q-46 -160 -297 -160h-178q-89 -242 -177 -350q-129 -158 -327 -158q-112 0 -178.5 62.5t-66.5 173.5q0 217 127 280q-94 22 -155 87q-71 74 -71 179q0 41 13 86q43 163 189 246q128 74 308 74h572l-183 -520h424zM639 520h-213l-80 -254q-7 -23 -7 -42
q0 -85 124 -85q8 0 23.5 1t23.5 1zM463 -27q-65 0 -121.5 -74.5t-56.5 -148.5q0 -66 57 -106z" />
    <glyph glyph-name="h" unicode="h" horiz-adv-x="1368" 
d="M1368 160q-26 -88 -111 -130q-61 -30 -131 -30h-426q-113 0 -113 82q0 32 15 78l72 213l-379 -312q-70 -61 -148 -61h-206l428 1208h360l-301 -850l305 250q118 97 268 97q100 0 100 -102q0 -37 -18 -85l-127 -358h412z" />
    <glyph glyph-name="i" unicode="i" horiz-adv-x="762" 
d="M690 1090q0 -100 -77.5 -170t-186.5 -70q-111 0 -188.5 70t-77.5 170q0 99 77.5 169t188.5 70q109 0 186.5 -70t77.5 -169zM762 160q-26 -88 -108 -130q-59 -30 -128 -30h-395q-143 0 -143 120q0 34 14 73l174 487h363l-185 -520h408z" />
    <glyph glyph-name="j" unicode="j" horiz-adv-x="858" 
d="M770 1090q0 -100 -77.5 -170t-186.5 -70q-111 0 -188.5 70t-77.5 170q0 99 77.5 169t188.5 70q109 0 186.5 -70t77.5 -169zM862 160q-47 -160 -270 -160h-211l-49 -137q-50 -138 -164 -214q-110 -73 -260 -73q-100 0 -163 81q-58 75 -58 179q0 156 113 245q105 83 270 83
l186 516h362l-184 -520h428zM20 0q-63 -10 -100 -58.5t-37 -113.5q0 -70 39 -102z" />
    <glyph glyph-name="k" unicode="k" horiz-adv-x="1376" 
d="M1372 160q-25 -88 -115 -130q-63 -30 -135 -30h-393q-137 0 -137 106q0 33 14 72l103 279q-46 -48 -367 -334q-79 -72 -120 -94q-54 -29 -130 -29h-149l426 1206h360l-266 -747l399 397h230l-232 -240h76q139 0 139 -107q0 -34 -16 -79l-98 -270h411z" />
    <glyph glyph-name="l" unicode="l" horiz-adv-x="766" 
d="M774 160q-25 -88 -115 -130q-63 -30 -135 -30h-385q-148 0 -148 101q0 26 11 59l371 1046h354l-373 -1046h420z" />
    <glyph glyph-name="m" unicode="m" horiz-adv-x="1958" 
d="M1960 160q-29 -160 -227 -160h-406q-48 0 -88.5 39.5t-40.5 89.5q0 16 4 31l66 215l-338 -283q-128 -106 -219 -106q-136 0 -136 102q0 33 15 72l80 215l-398 -332q-51 -43 -127 -43h-204l239 680h361l-113 -320l307 252q115 95 258 95q118 0 118 -91q0 -26 -11 -57
l-72 -199l299 254q109 93 242 93q126 0 126 -107q0 -36 -16 -80l-129 -360h410z" />
    <glyph glyph-name="n" unicode="n" horiz-adv-x="1358" 
d="M1370 160q-26 -88 -115 -130q-63 -30 -135 -30h-399q-137 0 -137 90q0 30 14 70l76 215l-344 -291q-121 -84 -199 -84h-184l239 680h361l-113 -320l305 250q124 101 269 97q98 -4 98 -104q0 -37 -16 -83l-129 -360h409z" />
    <glyph glyph-name="o" unicode="o" horiz-adv-x="1190" 
d="M1702 680q-40 -160 -240 -160h-626q33 -22 54 -80.5t17 -101.5q-14 -167 -147 -262q-127 -91 -330 -92q-236 -2 -363 93q-113 84 -113 221q0 27 5 54q26 151 150 237q132 91 352 91h1241zM612 520h-229l-90 -256q-7 -20 -7 -38q0 -86 160 -86q19 0 33 1z" />
    <glyph glyph-name="p" unicode="p" horiz-adv-x="1311" 
d="M1309 160q-9 -77 -81 -121q-64 -39 -151 -39h-545q-123 0 -126 127l93 37q66 30 100 73q46 57 46 146q0 55 -51 97t-113 40l-313 -905h-363l451 1307h362l-83 -242q225 0 298 -21q178 -49 171 -229q-4 -80 -71 -161q-69 -84 -159 -109h535z" />
    <glyph glyph-name="q" unicode="q" horiz-adv-x="1290" 
d="M1288 160q-25 -88 -115 -130q-63 -30 -135 -30h-209l-141 -410h-76q-78 0 -138 52q-64 55 -64 140q0 38 14 79l84 241q-108 -122 -275 -122q-29 0 -61 4q-91 11 -143 87q-47 70 -47 172q0 58 16 115q47 168 200 252q127 70 298 70h571l-180 -520h401zM649 520h-213
l-76 -215q-9 -26 -9 -48q0 -97 171 -97z" />
    <glyph glyph-name="r" unicode="r" horiz-adv-x="1171" 
d="M1171 160q0 -70 -77 -118q-68 -42 -142 -42h-383q-152 0 -152 126q0 32 13 69l113 325h-213l-111 -287q-28 -73 -121 -73h-106l131 360q-62 14 -100.5 62.5t-38.5 111.5q0 115 107 178q89 52 212 52h162l-84 -244h553l-182 -520h419z" />
    <glyph glyph-name="s" unicode="s" horiz-adv-x="1206" 
d="M1208 160q-4 -67 -76.5 -113.5t-158.5 -46.5h-760q-219 0 -219 134q0 12 2 26q8 60 64 93q48 29 110 28q108 -3 293 -119q53 66 53 134q0 34 -43 155l-113 -103h-200l266 246q-18 31 -25 51q-13 37 -14 84l246 262q166 -28 166 -151q0 -72 -43 -133l75 -196
q46 -126 46 -204q0 -86 -68 -147h399z" />
    <glyph glyph-name="t" unicode="t" horiz-adv-x="889" 
d="M889 160q-47 -160 -250 -160h-510q-148 0 -148 104q0 26 11 56l127 360h-164l63 160q175 45 260 115q96 79 205 286h195l-141 -401h258q-62 -160 -252 -160h-66l-125 -360h537z" />
    <glyph glyph-name="u" unicode="u" horiz-adv-x="1323" 
d="M1327 160q-21 -83 -92 -126q-56 -34 -119 -34h-418q-147 0 -147 94q-78 -94 -211 -94h-176q-81 0 -126 42q-42 39 -42 103q0 36 14 74l168 461h363l-187 -520h203l186 520h359l-182 -520h407z" />
    <glyph glyph-name="v" unicode="v" horiz-adv-x="1044" 
d="M1501 680q-25 -88 -115 -130q-63 -30 -135 -30h-420l-423 -520h-400l-43 680h363l6 -492l375 492h792z" />
    <glyph glyph-name="w" unicode="w" horiz-adv-x="1696" 
d="M1606 680l-181 -520q-74 -160 -249 -160h-506q-133 0 -148 88q-73 -88 -211 -88h-178q-148 0 -148 105q0 25 11 55l182 520h363l-187 -520h174l187 520h358l-182 -520h170l186 520h359z" />
    <glyph glyph-name="x" unicode="x" horiz-adv-x="997" 
d="M1028 680l-395 -289l260 -391h-406l-129 190l-262 -190h-313l469 346l-227 334h417l86 -129l174 129h326z" />
    <glyph glyph-name="y" unicode="y" horiz-adv-x="1327" 
d="M1331 160q-59 -160 -221 -160h-244q-87 -236 -183 -350q-134 -158 -333 -158q-125 0 -193 73q-59 64 -59 165q0 80 34.5 155t90.5 115h-76q-66 0 -109.5 40.5t-43.5 101.5q0 28 10 57l174 481h363l-187 -520h203l184 520h361l-184 -520h413zM494 -27q-66 0 -122.5 -74.5
t-56.5 -148.5q0 -66 58 -106z" />
    <glyph glyph-name="z" unicode="z" horiz-adv-x="1059" 
d="M1061 160q-47 -160 -232 -160h-653q-188 0 -188 98q0 64 51 117l297 305h-340l55 160h846l-475 -520h639z" />
    <glyph glyph-name="braceleft" unicode="{" horiz-adv-x="993" 
d="M950 1511l-37 -104h-59q-55 0 -80 -37q-10 -14 -37 -90l-166 -471l-211 -129l123 -123l-186 -534q-25 -71 -25 -95q0 -32 56 -32h59l-39 -105h-219q-159 0 -159 112q0 38 18 89l217 624l-64 64l133 131l175 500q69 200 282 200h219z" />
    <glyph glyph-name="bar" unicode="|" horiz-adv-x="365" 
d="M250 -207h-129v1716h129v-1716z" />
    <glyph glyph-name="braceright" unicode="}" horiz-adv-x="993" 
d="M791 1311l-218 -625l64 -63l-133 -131l-174 -500q-70 -201 -283 -201h-219l37 105h59q55 0 80 36q10 15 37 91l166 471l211 129l-123 122l186 535q25 70 25 95q0 32 -55 32h-60l39 104h219q159 0 159 -112q0 -38 -17 -88z" />
    <glyph glyph-name="asciitilde" unicode="~" horiz-adv-x="1231" 
d="M1108 764l-47 -186q-127 -156 -292 -156q-90 0 -177 55q-96 61 -199 60q-157 0 -270 -129l70 190q100 140 273 140q104 0 212 -58q98 -53 176 -53q113 0 254 137z" />
    <glyph glyph-name="Adieresis" unicode="&#xc4;" horiz-adv-x="2257" 
d="M2773 680q-51 -160 -244 -160h-594l-188 -520h-358l188 520h-307q-504 -608 -985 -608q-140 0 -236 52q-121 66 -121 194q0 109 90 213q145 167 439 247q230 62 508 62h194l606 727h482l-258 -727h784zM1841 1241l-438 -561h223zM1024 520q-375 0 -526 -108
q-125 -90 -125 -191q0 -86 90 -86q124 0 310 140q163 121 251 245zM2386 1626q0 -58 -43.5 -94.5t-101.5 -36.5q-57 0 -101.5 38.5t-44.5 94.5q0 57 44.5 95t101.5 38q58 0 101 -37q44 -40 44 -98zM1975 1626q0 -58 -44 -94.5t-102 -36.5q-57 0 -101 38.5t-44 94.5
q0 57 44 95t101 38q59 0 101 -37q45 -40 45 -98z" />
    <glyph glyph-name="Aring" unicode="&#xc5;" horiz-adv-x="2257" 
d="M2773 680q-51 -160 -244 -160h-594l-188 -520h-358l188 520h-307q-504 -608 -985 -608q-140 0 -236 52q-121 66 -121 194q0 109 90 213q145 167 439 247q230 62 508 62h194l606 727h482l-258 -727h784zM1841 1241l-438 -561h223zM1024 520q-375 0 -526 -108
q-125 -90 -125 -191q0 -86 90 -86q124 0 310 140q163 121 251 245zM2257 1675q0 -75 -54 -128.5t-130 -53.5t-130.5 53.5t-54.5 128.5q0 77 54.5 130.5t130.5 53.5q77 0 130.5 -53.5t53.5 -130.5zM2163 1675q0 37 -26 63t-62 27q-37 1 -63 -26t-27 -64q-1 -34 24.5 -60
t61.5 -28t64 25t28 63z" />
    <glyph glyph-name="Ccedilla" unicode="&#xc7;" horiz-adv-x="1546" 
d="M1593 1163q0 -105 -83 -177q-79 -68 -185 -68q-107 0 -187 68q-83 72 -83 177q0 35 8 60q-214 -2 -389 -222q-164 -208 -164 -428q0 -413 539 -413h503q-31 -160 -243 -160h-369q-345 0 -560 100q-295 138 -292 449q2 174 107 348q143 238 406 376q255 134 542 134h200
q97 0 173.5 -74t76.5 -170zM1056 -207q0 -88 -56 -141q-66 -62 -194 -62h-346q33 160 246 160h162q19 8 23 11q8 5 9 18q3 28 -15 45t-48 16h-111l35 88l111 88h90l-98 -73q192 0 192 -150z" />
    <glyph glyph-name="Eacute" unicode="&#xc9;" horiz-adv-x="1587" 
d="M1642 1167q0 -99 -77.5 -169t-188.5 -70q-109 0 -186.5 70t-77.5 169q0 46 14 80h-118q-57 0 -96.5 -47.5t-39.5 -105.5q0 -47 32 -134.5t32 -134.5q0 -56 -116 -112q-167 -80 -216 -121q-117 -98 -117 -258q0 -120 136 -156q67 -18 233 -18h729q-13 -77 -91 -122
q-68 -38 -153 -38h-821q-184 0 -311 63q-164 82 -164 246q0 178 178 325q146 120 344 175q-57 125 -57 227q0 195 206 294q159 77 378 77h305q101 0 172 -71.5t71 -168.5zM1516 1802l-308 -309h-149l182 309h275z" />
    <glyph glyph-name="Ntilde" unicode="&#xd1;" horiz-adv-x="1954" 
d="M2335 1198q0 -104 -83 -173q-78 -67 -184 -67q-107 0 -182 66l-332 -922q-47 -133 -163 -133q-156 0 -185 135l-166 787l-225 -666q-35 -104 -134 -166q-93 -59 -206 -59h-475q44 110 75 155q59 87 138 87q48 0 145.5 -20.5t147.5 -20.5q105 0 149 129l308 893
q39 116 67 149q47 60 148 60q151 0 194 -213l137 -684l207 581q115 322 350 322q106 0 185 -66q84 -70 84 -174zM2005 1757l-62 -164q-87 -102 -186 -102q-77 0 -152.5 62t-154.5 62q-98 0 -189 -95l74 157q76 99 184 99q79 0 172 -68q77 -55 134 -55q65 0 180 104z" />
    <glyph glyph-name="Odieresis" unicode="&#xd6;" horiz-adv-x="1815" 
d="M1726 893q0 -370 -291 -644q-282 -265 -634 -265q-259 0 -409 140t-150 384q0 126 59 270q56 137 148 248h440q-113 -100 -187 -256q-75 -160 -75 -307q0 -121 50 -205q60 -100 173 -100q188 0 340 243q135 218 135 418q0 159 -92 247.5t-254 88.5h-987l153 252h920
q280 0 455 -114q206 -135 206 -400zM1345 1624q0 -58 -43.5 -94.5t-101.5 -36.5q-57 0 -101.5 38.5t-44.5 94.5q0 57 44.5 95t101.5 38q58 0 101 -37q44 -40 44 -98zM934 1624q0 -58 -44 -94.5t-102 -36.5q-57 0 -101 38.5t-44 94.5q0 57 44 95t101 38q59 0 101 -37
q45 -40 45 -98z" />
    <glyph glyph-name="Udieresis" unicode="&#xdc;" horiz-adv-x="1634" 
d="M1665 1186q0 -115 -53 -295q-46 -155 -107 -283q-161 -339 -315 -472q-198 -171 -533 -171q-176 0 -284 75q-125 87 -125 255q0 77 28 158l250 702h-559l152 252h858l-328 -936q-26 -76 -26 -143q0 -76 50 -119q47 -41 124 -41q273 0 477 453q80 176 102 307
q-118 0 -205 70q-94 75 -94 190q0 111 92 187q87 73 201 73q121 0 205 -70q90 -74 90 -192zM1358 1626q0 -58 -43.5 -94.5t-101.5 -36.5q-57 0 -101.5 38.5t-44.5 94.5q0 57 44.5 95t101.5 38q58 0 101 -37q44 -40 44 -98zM947 1626q0 -58 -44 -94.5t-102 -36.5
q-57 0 -101 38.5t-44 94.5q0 57 44 95t101 38q59 0 101 -37q45 -40 45 -98z" />
    <glyph glyph-name="aacute" unicode="&#xe1;" horiz-adv-x="1290" 
d="M1292 160q-48 -160 -245 -160h-379q-162 0 -162 104q-109 -124 -268 -124q-117 0 -190 72t-73 188q0 209 160 330q145 110 359 110h571l-188 -520h415zM647 520h-221l-70 -233q-6 -22 -6 -40q0 -87 170 -87zM992 1110l-308 -309h-149l182 309h275z" />
    <glyph glyph-name="agrave" unicode="&#xe0;" horiz-adv-x="1290" 
d="M1292 160q-48 -160 -245 -160h-379q-162 0 -162 104q-109 -124 -268 -124q-117 0 -190 72t-73 188q0 209 160 330q145 110 359 110h571l-188 -520h415zM647 520h-221l-70 -233q-6 -22 -6 -40q0 -87 170 -87zM775 801h-113l-242 309h269z" />
    <glyph glyph-name="acircumflex" unicode="&#xe2;" horiz-adv-x="1290" 
d="M1292 160q-48 -160 -245 -160h-379q-162 0 -162 104q-109 -124 -268 -124q-117 0 -190 72t-73 188q0 209 160 330q145 110 359 110h571l-188 -520h415zM647 520h-221l-70 -233q-6 -22 -6 -40q0 -87 170 -87zM915 803h-172l-84 121l-156 -121h-161l225 254h219z" />
    <glyph glyph-name="adieresis" unicode="&#xe4;" horiz-adv-x="1290" 
d="M1292 160q-48 -160 -245 -160h-379q-162 0 -162 104q-109 -124 -268 -124q-117 0 -190 72t-73 188q0 209 160 330q145 110 359 110h571l-188 -520h415zM647 520h-221l-70 -233q-6 -22 -6 -40q0 -87 170 -87zM987 934q0 -58 -43.5 -94.5t-101.5 -36.5q-57 0 -101.5 38.5
t-44.5 94.5q0 57 44.5 95t101.5 38q58 0 101 -37q44 -40 44 -98zM576 934q0 -58 -44 -94.5t-102 -36.5q-57 0 -101 38.5t-44 94.5q0 57 44 95t101 38q59 0 101 -37q45 -40 45 -98z" />
    <glyph glyph-name="atilde" unicode="&#xe3;" horiz-adv-x="1290" 
d="M1292 160q-48 -160 -245 -160h-379q-162 0 -162 104q-109 -124 -268 -124q-117 0 -190 72t-73 188q0 209 160 330q145 110 359 110h571l-188 -520h415zM647 520h-221l-70 -233q-6 -22 -6 -40q0 -87 170 -87zM1041 1069l-62 -164q-87 -102 -186 -102q-77 0 -152.5 62
t-154.5 62q-98 0 -189 -95l74 157q76 99 184 99q79 0 172 -68q77 -55 134 -55q65 0 180 104z" />
    <glyph glyph-name="aring" unicode="&#xe5;" horiz-adv-x="1290" 
d="M1292 160q-48 -160 -245 -160h-379q-162 0 -162 104q-109 -124 -268 -124q-117 0 -190 72t-73 188q0 209 160 330q145 110 359 110h571l-188 -520h415zM647 520h-221l-70 -233q-6 -22 -6 -40q0 -87 170 -87zM870 985q0 -75 -54 -128.5t-130 -53.5t-130.5 53.5
t-54.5 128.5q0 77 54.5 130.5t130.5 53.5q77 0 130.5 -53.5t53.5 -130.5zM776 985q0 37 -26 63t-62 27q-37 1 -63 -26t-27 -64q-1 -34 24.5 -60t61.5 -28t64 25t28 63z" />
    <glyph glyph-name="ccedilla" unicode="&#xe7;" horiz-adv-x="1237" 
d="M1251 160q-22 -78 -92 -121q-64 -39 -149 -39h-602q-172 0 -289 58q-148 73 -148 220q0 16 2 33q20 179 186 280q146 89 345 89h252q85 0 145 -54t60 -132q0 -79 -60.5 -134t-144.5 -55q-85 0 -144.5 55.5t-58.5 135.5v24h-121l-78 -221q-10 -28 -10 -51q0 -88 139 -88
h768zM713 -194q0 -88 -56 -141q-66 -62 -194 -62h-346q33 160 246 160h162q19 8 23 11q8 5 9 18q3 28 -15 45t-48 16h-111l35 88l111 88h90l-98 -73q192 0 192 -150z" />
    <glyph glyph-name="eacute" unicode="&#xe9;" horiz-adv-x="1251" 
d="M1257 160q-21 -77 -96 -121q-67 -39 -153 -39h-557q-486 0 -486 293q0 188 166 295q143 92 340 92h145q127 0 223 -39q128 -52 134 -158q5 -107 -103 -178h-331l108 215h-211l-82 -241q-7 -21 -7 -38q0 -81 130 -81h780zM904 1110l-308 -309h-149l182 309h275z" />
    <glyph glyph-name="egrave" unicode="&#xe8;" horiz-adv-x="1251" 
d="M1257 160q-21 -77 -96 -121q-67 -39 -153 -39h-557q-486 0 -486 293q0 188 166 295q143 92 340 92h145q127 0 223 -39q128 -52 134 -158q5 -107 -103 -178h-331l108 215h-211l-82 -241q-7 -21 -7 -38q0 -81 130 -81h780zM693 803h-113l-242 309h269z" />
    <glyph glyph-name="ecircumflex" unicode="&#xea;" horiz-adv-x="1251" 
d="M1257 160q-21 -77 -96 -121q-67 -39 -153 -39h-557q-486 0 -486 293q0 188 166 295q143 92 340 92h145q127 0 223 -39q128 -52 134 -158q5 -107 -103 -178h-331l108 215h-211l-82 -241q-7 -21 -7 -38q0 -81 130 -81h780zM842 801h-172l-84 121l-156 -121h-161l225 254
h219z" />
    <glyph glyph-name="edieresis" unicode="&#xeb;" horiz-adv-x="1251" 
d="M1257 160q-21 -77 -96 -121q-67 -39 -153 -39h-557q-486 0 -486 293q0 188 166 295q143 92 340 92h145q127 0 223 -39q128 -52 134 -158q5 -107 -103 -178h-331l108 215h-211l-82 -241q-7 -21 -7 -38q0 -81 130 -81h780zM921 934q0 -58 -43.5 -94.5t-101.5 -36.5
q-57 0 -101.5 38.5t-44.5 94.5q0 57 44.5 95t101.5 38q58 0 101 -37q44 -40 44 -98zM510 934q0 -58 -44 -94.5t-102 -36.5q-57 0 -101 38.5t-44 94.5q0 57 44 95t101 38q59 0 101 -37q45 -40 45 -98z" />
    <glyph glyph-name="iacute" unicode="&#xed;" horiz-adv-x="762" 
d="M762 160q-26 -88 -108 -130q-59 -30 -128 -30h-395q-143 0 -143 120q0 34 14 73l174 487h363l-185 -520h408zM719 1112l-308 -309h-149l182 309h275z" />
    <glyph glyph-name="igrave" unicode="&#xec;" horiz-adv-x="762" 
d="M762 160q-26 -88 -108 -130q-59 -30 -128 -30h-395q-143 0 -143 120q0 34 14 73l174 487h363l-185 -520h408zM502 801h-113l-242 309h269z" />
    <glyph glyph-name="icircumflex" unicode="&#xee;" horiz-adv-x="762" 
d="M762 160q-26 -88 -108 -130q-59 -30 -128 -30h-395q-143 0 -143 120q0 34 14 73l174 487h363l-185 -520h408zM664 803h-172l-84 121l-156 -121h-161l225 254h219z" />
    <glyph glyph-name="idieresis" unicode="&#xef;" horiz-adv-x="762" 
d="M762 160q-26 -88 -108 -130q-59 -30 -128 -30h-395q-143 0 -143 120q0 34 14 73l174 487h363l-185 -520h408zM758 934q0 -58 -43.5 -94.5t-101.5 -36.5q-57 0 -101.5 38.5t-44.5 94.5q0 57 44.5 95t101.5 38q58 0 101 -37q44 -40 44 -98zM347 934q0 -58 -44 -94.5
t-102 -36.5q-57 0 -101 38.5t-44 94.5q0 57 44 95t101 38q59 0 101 -37q45 -40 45 -98z" />
    <glyph glyph-name="ntilde" unicode="&#xf1;" horiz-adv-x="1358" 
d="M1370 160q-26 -88 -115 -130q-63 -30 -135 -30h-399q-137 0 -137 90q0 30 14 70l76 215l-344 -291q-121 -84 -199 -84h-184l239 680h361l-113 -320l305 250q124 101 269 97q98 -4 98 -104q0 -37 -16 -83l-129 -360h409zM1053 1069l-62 -164q-87 -102 -186 -102
q-77 0 -152.5 62t-154.5 62q-98 0 -189 -95l74 157q76 99 184 99q79 0 172 -68q77 -55 134 -55q65 0 180 104z" />
    <glyph glyph-name="oacute" unicode="&#xf3;" horiz-adv-x="1190" 
d="M1702 680q-40 -160 -240 -160h-626q33 -22 54 -80.5t17 -101.5q-14 -167 -147 -262q-127 -91 -330 -92q-236 -2 -363 93q-113 84 -113 221q0 27 5 54q26 151 150 237q132 91 352 91h1241zM612 520h-229l-90 -256q-7 -20 -7 -38q0 -86 160 -86q19 0 33 1zM887 1110
l-308 -309h-149l182 309h275z" />
    <glyph glyph-name="ograve" unicode="&#xf2;" horiz-adv-x="1190" 
d="M1702 680q-40 -160 -240 -160h-626q33 -22 54 -80.5t17 -101.5q-14 -167 -147 -262q-127 -91 -330 -92q-236 -2 -363 93q-113 84 -113 221q0 27 5 54q26 151 150 237q132 91 352 91h1241zM612 520h-229l-90 -256q-7 -20 -7 -38q0 -86 160 -86q19 0 33 1zM674 801h-113
l-242 309h269z" />
    <glyph glyph-name="ocircumflex" unicode="&#xf4;" horiz-adv-x="1190" 
d="M1702 680q-40 -160 -240 -160h-626q33 -22 54 -80.5t17 -101.5q-14 -167 -147 -262q-127 -91 -330 -92q-236 -2 -363 93q-113 84 -113 221q0 27 5 54q26 151 150 237q132 91 352 91h1241zM612 520h-229l-90 -256q-7 -20 -7 -38q0 -86 160 -86q19 0 33 1zM842 801h-172
l-84 121l-156 -121h-161l225 254h219z" />
    <glyph glyph-name="odieresis" unicode="&#xf6;" horiz-adv-x="1190" 
d="M1702 680q-40 -160 -240 -160h-626q33 -22 54 -80.5t17 -101.5q-14 -167 -147 -262q-127 -91 -330 -92q-236 -2 -363 93q-113 84 -113 221q0 27 5 54q26 151 150 237q132 91 352 91h1241zM612 520h-229l-90 -256q-7 -20 -7 -38q0 -86 160 -86q19 0 33 1zM930 932
q0 -58 -43.5 -94.5t-101.5 -36.5q-57 0 -101.5 38.5t-44.5 94.5q0 57 44.5 95t101.5 38q58 0 101 -37q44 -40 44 -98zM519 932q0 -58 -44 -94.5t-102 -36.5q-57 0 -101 38.5t-44 94.5q0 57 44 95t101 38q59 0 101 -37q45 -40 45 -98z" />
    <glyph glyph-name="otilde" unicode="&#xf5;" horiz-adv-x="1190" 
d="M1702 680q-40 -160 -240 -160h-626q33 -22 54 -80.5t17 -101.5q-14 -167 -147 -262q-127 -91 -330 -92q-236 -2 -363 93q-113 84 -113 221q0 27 5 54q26 151 150 237q132 91 352 91h1241zM612 520h-229l-90 -256q-7 -20 -7 -38q0 -86 160 -86q19 0 33 1zM959 1067
l-62 -164q-87 -102 -186 -102q-77 0 -152.5 62t-154.5 62q-98 0 -189 -95l74 157q76 99 184 99q79 0 172 -68q77 -55 134 -55q65 0 180 104z" />
    <glyph glyph-name="uacute" unicode="&#xfa;" horiz-adv-x="1323" 
d="M1327 160q-21 -83 -92 -126q-56 -34 -119 -34h-418q-147 0 -147 94q-78 -94 -211 -94h-176q-81 0 -126 42q-42 39 -42 103q0 36 14 74l168 461h363l-187 -520h203l186 520h359l-182 -520h407zM959 1110l-308 -309h-149l182 309h275z" />
    <glyph glyph-name="ugrave" unicode="&#xf9;" horiz-adv-x="1323" 
d="M1327 160q-21 -83 -92 -126q-56 -34 -119 -34h-418q-147 0 -147 94q-78 -94 -211 -94h-176q-81 0 -126 42q-42 39 -42 103q0 36 14 74l168 461h363l-187 -520h203l186 520h359l-182 -520h407zM775 801h-113l-242 309h269z" />
    <glyph glyph-name="ucircumflex" unicode="&#xfb;" horiz-adv-x="1323" 
d="M1327 160q-21 -83 -92 -126q-56 -34 -119 -34h-418q-147 0 -147 94q-78 -94 -211 -94h-176q-81 0 -126 42q-42 39 -42 103q0 36 14 74l168 461h363l-187 -520h203l186 520h359l-182 -520h407zM942 801h-172l-84 121l-156 -121h-161l225 254h219z" />
    <glyph glyph-name="udieresis" unicode="&#xfc;" horiz-adv-x="1323" 
d="M1327 160q-21 -83 -92 -126q-56 -34 -119 -34h-418q-147 0 -147 94q-78 -94 -211 -94h-176q-81 0 -126 42q-42 39 -42 103q0 36 14 74l168 461h363l-187 -520h203l186 520h359l-182 -520h407zM1014 934q0 -58 -43.5 -94.5t-101.5 -36.5q-57 0 -101.5 38.5t-44.5 94.5
q0 57 44.5 95t101.5 38q58 0 101 -37q44 -40 44 -98zM603 934q0 -58 -44 -94.5t-102 -36.5q-57 0 -101 38.5t-44 94.5q0 57 44 95t101 38q59 0 101 -37q45 -40 45 -98z" />
    <glyph glyph-name="dagger" unicode="&#x2020;" horiz-adv-x="1159" 
d="M1313 883q0 -80 -60 -135.5t-145 -55.5q-45 0 -76 13q-84 33 -182 106l-332 -1171l-78 49l185 1179l-23 27q-6 -75 -65.5 -126.5t-141.5 -51.5q-84 0 -144.5 56.5t-60.5 135.5t60.5 134t144.5 55q48 0 105 -25q92 -40 145 -82l64 408h327l-155 -469q-6 -4 -6 -10
q0 -13 28 -27q5 76 63.5 128t141.5 52q84 0 144.5 -56t60.5 -134z" />
    <glyph glyph-name="degree" unicode="&#xb0;" 
d="M702 1239q0 -123 -85 -208t-207 -85q-123 0 -208 85t-85 208t85 208t208 85q122 0 207 -85t85 -208zM571 1239q0 71 -44.5 120.5t-116.5 49.5t-117 -49.5t-45 -120.5t45 -120.5t117 -49.5t116.5 49.5t44.5 120.5z" />
    <glyph glyph-name="cent" unicode="&#xa2;" horiz-adv-x="1237" 
d="M1092 160q-22 -78 -93 -121q-64 -39 -149 -39h-193l-104 -313h-158l105 315q-159 9 -260 67q-125 73 -125 208q0 17 2 34q20 179 186 280q146 89 344 89h90l94 285h158l-98 -289q199 -28 199 -184q0 -78 -54 -130q-57 -55 -145 -55q-90 0 -147 60q-50 52 -50 119
q0 18 4 34h-123l-77 -221q-10 -28 -10 -50q0 -89 139 -89h465z" />
    <glyph glyph-name="sterling" unicode="&#xa3;" horiz-adv-x="1952" 
d="M2218 1202q0 -98 -78 -168.5t-188 -70.5q-111 0 -188.5 70.5t-77.5 168.5q0 6 1 15.5t1 13.5q-14 0 -32 -1l-18 -1q-197 0 -260 -549h301q-16 -105 -131 -140q-67 -20 -215 -20q-109 -257 -411 -360h878q-43 -160 -268 -160h-1532q83 240 213 240q65 0 189.5 -31
t189.5 -31q120 0 202 117q50 72 103 225h-260l88 160h229l107 303q179 463 733 463q27 0 79 -1t79 -1q104 0 183 -68q83 -71 83 -174z" />
    <glyph glyph-name="section" unicode="&#xa7;" horiz-adv-x="1507" 
d="M1640 1167q0 -98 -77.5 -168.5t-186.5 -70.5q-110 0 -188 70.5t-78 168.5q0 17 4 41h-41q-150 0 -151 -143q-1 -71 128.5 -319t129.5 -351q0 -74 -48 -147q-40 -63 -85 -88h464q-56 -160 -292 -160h-924q-105 0 -183 66q-83 70 -83 174q0 99 77.5 169t188.5 70t188.5 -70
t77.5 -169q0 -43 -16 -82q17 -2 34 -2q89 0 139 54q47 52 47 135q0 70 -34 144l-149 330q-56 122 -56 219q0 166 132 271q123 98 292 98h426q110 0 187 -70t77 -170z" />
    <glyph glyph-name="bullet" unicode="&#x2022;" horiz-adv-x="696" 
d="M606 694q0 -99 -76 -169t-184 -70t-184 70t-76 169q0 100 76 170t184 70t184 -70t76 -170z" />
    <glyph glyph-name="paragraph" unicode="&#xb6;" horiz-adv-x="1298" 
d="M1280 1511l-606 -1726h-230l572 1554h-146l-571 -1554h-229l315 846q-141 32 -225 146q-82 111 -82 259q0 198 137 328q156 147 438 147h627z" />
    <glyph glyph-name="germandbls" unicode="&#xdf;" horiz-adv-x="1399" 
d="M1403 160q-61 -160 -211 -160h-1133q-69 68 -69 160q0 101 74 171t182 70q196 0 256 -174q12 -36 8 -67h248l-99 282q-14 42 -14 76q0 71 62 117q6 4 102 53l188 96l45 158q10 33 10 52q0 55 -77 55h-146q-137 0 -190 -150l-133 -379h-586l66 160h221l43 131
q134 410 555 410h235q97 0 156.5 -54t59.5 -148q0 -41 -13 -87l-78 -285l-182 -100l90 -258q29 -82 -10 -129h340z" />
    <glyph glyph-name="registered" unicode="&#xae;" horiz-adv-x="915" 
d="M909 813q0 -174 -133 -297t-321 -123q-189 0 -322 123t-133 295q0 174 133 298t322 124q188 0 321 -123t133 -297zM821 811q0 138 -107 236t-257 98q-151 0 -258 -98.5t-107 -237.5q0 -138 107 -236t258 -98t257.5 98t106.5 238zM723 879q-15 -90 -113 -119l78 -154h-201
l-61 127h-29l-45 -127h-184l149 420h230q178 0 178 -118q0 -14 -2 -29zM557 879q5 12 5 24q0 45 -40 45h-45l-51 -141q57 -2 57 2q47 0 74 70z" />
    <glyph glyph-name="copyright" unicode="&#xa9;" horiz-adv-x="915" 
d="M909 815q0 -174 -133 -297t-321 -123q-189 0 -322 123t-133 295q0 174 133 297.5t322 124.5q188 1 321 -122.5t133 -297.5zM821 813q0 138 -107 236t-257 98q-151 0 -258 -98t-107 -238q0 -138 107 -236t258 -98t257.5 98.5t106.5 237.5zM694 918q0 -45 -32 -76t-78 -31
q-50 0 -81 33t-30 82h-41l-39 -140q-6 -22 -6 -39q0 -69 98 -69h207q-19 -80 -139 -80h-133q-87 0 -154 46q-73 50 -73 127q0 12 2 24q17 113 97 175q71 56 171 56h129q42 0 72 -32.5t30 -75.5z" />
    <glyph glyph-name="trademark" unicode="&#x2122;" horiz-adv-x="1423" 
d="M1276 696q-18 -49 -86 -49h-105q-45 0 -45 27q0 12 9 31l59 122l-168 -165q-17 -17 -55 -17q-32 0 -32 26q0 14 9 34l88 182l-207 -223q-14 -17 -41 -17h-65l154 328h-170l-113 -238q-41 -86 -129 -86h-203q35 75 70 70l135 -21l135 275h-180q-45 0 -73 -25
q-23 -22 -23 -49q0 -21 14 -29q10 76 82 76q35 0 60.5 -24.5t25.5 -59.5q0 -36 -25.5 -61t-64.5 -25q-56 0 -96 33q-50 28 -50 90q0 76 61 119q55 39 136 39h489q37 0 37 -27q0 -12 -8 -31l-82 -180l139 142q47 47 97 47q31 0 31 -31q0 -14 -9 -33l-78 -160l131 125
q40 37 84 37q27 0 27 -32q0 -16 -10 -37l-86 -183h131z" />
    <glyph glyph-name="acute" unicode="&#xb4;" 
d="M1008 1110l-308 -309h-149l182 309h275z" />
    <glyph glyph-name="dieresis" unicode="&#xa8;" 
d="M864 987q0 -58 -43.5 -94.5t-101.5 -36.5q-57 0 -101.5 38.5t-44.5 94.5q0 57 44.5 95t101.5 38q58 0 101 -37q44 -40 44 -98zM453 987q0 -58 -44 -94.5t-102 -36.5q-57 0 -101 38.5t-44 94.5q0 57 44 95t101 38q59 0 101 -37q45 -40 45 -98z" />
    <glyph glyph-name="notequal" unicode="&#x2260;" horiz-adv-x="903" 
d="M801 391h-347l-80 -322l-117 29l72 293h-227v119h257l61 246h-318v121h348l79 320l117 -29l-72 -291h227v-121h-257l-61 -246h318v-119z" />
    <glyph glyph-name="AE" unicode="&#xc6;" horiz-adv-x="2920" 
d="M3027 1147q0 -113 -91 -189q-86 -71 -202 -71q-115 0 -202 71q-91 76 -91 189q0 20 8 61q-105 -2 -139 -13q-72 -25 -94 -110q-5 -18 -5 -37q0 -40 31 -118.5t31 -120.5q0 -52 -104 -108q-151 -81 -195 -121q-104 -96 -104 -242q0 -131 131 -165q51 -13 237 -13h682
q-12 -77 -91 -122q-67 -38 -152 -38h-963q-85 0 -156 51q-80 58 -80 150q0 39 15 82l86 237h-315q-504 -608 -988 -608q-139 0 -234 52q-120 65 -120 194q0 108 90 213q144 167 438 246q231 63 508 63h201l588 727h987q116 0 202 -72q91 -76 91 -188zM1798 1161l-397 -481
h231zM1018 520q-231 0 -408 -50q-258 -74 -258 -232q0 -45 30 -74t75 -29q123 0 310 140q163 121 251 245z" />
    <glyph glyph-name="Oslash" unicode="&#xd8;" horiz-adv-x="1745" 
d="M1540 1526l-917 -1684h-195l918 1684h194zM1726 893q0 -370 -291 -644q-282 -265 -634 -265q-259 0 -409 140t-150 384q0 126 59 270q56 137 148 248h440q-113 -100 -187 -256q-75 -160 -75 -307q0 -121 50 -205q60 -100 173 -100q188 0 340 243q135 218 135 418
q0 159 -92 247.5t-254 88.5h-987l153 252h920q280 0 455 -114q206 -135 206 -400z" />
    <glyph glyph-name="infinity" unicode="&#x221e;" horiz-adv-x="1270" 
d="M1236 252q0 -113 -113 -113h-251q-64 0 -138 113l-99 151l-98 -153q-42 -65 -63 -84q-29 -26 -72 -27h-253q-113 0 -113 113v508q0 113 113 113h253q66 -1 138 -113l97 -151l98 151q73 113 137 113h251q112 0 113 -113v-508zM1102 256v500h-238l-161 -249l162 -251h237z
M569 504l-165 252h-235v-500h240z" />
    <glyph glyph-name="plusminus" unicode="&#xb1;" horiz-adv-x="838" 
d="M768 650h-289v-254h-119v254h-290v114h290v264h119v-264h289v-114zM772 190h-704v123h704v-123z" />
    <glyph glyph-name="lessequal" unicode="&#x2264;" horiz-adv-x="698" 
d="M584 302h-6l-502 346v72l508 349v-139l-371 -245l371 -244v-139zM584 145h-508v119h508v-119z" />
    <glyph glyph-name="greaterequal" unicode="&#x2265;" horiz-adv-x="698" 
d="M604 648l-508 -346v139l370 244l-370 245v139h6l502 -349v-72zM603 145h-507v119h507v-119z" />
    <glyph glyph-name="yen" unicode="&#xa5;" horiz-adv-x="1905" 
d="M1839 418q-28 -106 -116 -156q-64 -37 -140 -37h-153l-168 -487h-361l170 487h-369q29 106 117 156q64 37 139 37h179l147 426l-280 -258q-107 -99 -289 -99q-41 0 -97 35q-82 51 -82 140q0 38 15 81l166 471h-170q6 -24 6 -49q0 -99 -76 -169t-184 -70t-184 70t-76 169
q0 101 70.5 171.5t185.5 70.5h637q70 0 112 -41.5t42 -107.5q0 -39 -15 -80l-168 -478l612 633q77 74 166 74h164l-342 -989h342z" />
    <glyph glyph-name="mu" unicode="&#xb5;" horiz-adv-x="784" 
d="M676 0h-131v28q-68 -29 -184 -29q-94 0 -121 40v-408h-131v1342h131v-720q0 -139 138 -139q95 0 166 16v843h132v-973z" />
    <glyph glyph-name="mu" unicode="&#x3bc;" horiz-adv-x="784" 
d="M676 0h-131v28q-68 -29 -184 -29q-94 0 -121 40v-408h-131v1342h131v-720q0 -139 138 -139q95 0 166 16v843h132v-973z" />
    <glyph glyph-name="partialdiff" unicode="&#x2202;" horiz-adv-x="868" 
d="M745 859v-748q0 -49 -31 -80t-80 -31h-399q-49 0 -80 31t-31 80v641q0 49 31 79.5t80 30.5h357l-327 703h151zM605 123v618h-342v-618h342z" />
    <glyph glyph-name="summation" unicode="&#x2211;" horiz-adv-x="731" 
d="M649 0h-564v108l382 688l-382 644v125h558v-123h-420l357 -587v-119l-356 -613h425v-123z" />
    <glyph glyph-name="product" unicode="&#x220f;" horiz-adv-x="804" 
d="M764 1442h-148v-1442h-135v1442h-163v-1442h-135v1442h-144v123h725v-123z" />
    <glyph glyph-name="pi" unicode="&#x3c0;" horiz-adv-x="804" 
d="M764 770h-148v-770h-135v770h-163v-770h-135v770h-144v123h725v-123z" />
    <glyph glyph-name="integral" unicode="&#x222b;" horiz-adv-x="487" 
d="M477 1448h-188v-1737q0 -44 -26 -75q-30 -36 -82 -36l-213 -1v117h189l1 1736q0 113 112 113h207v-117z" />
    <glyph glyph-name="ordfeminine" unicode="&#xaa;" horiz-adv-x="1290" 
d="M1294 686q-48 -160 -245 -160h-160q-162 0 -162 105q-108 -125 -253 -125q-117 0 -189.5 72.5t-72.5 187.5q0 209 160 331q144 109 358 109h546l-188 -520h206zM869 1047h-217l-69 -234q-7 -22 -7 -40q0 -87 166 -87zM1127 429l-43 -156h-954l43 156h954z" />
    <glyph glyph-name="ordmasculine" unicode="&#xba;" horiz-adv-x="1190" 
d="M1176 877q-18 -166 -150 -260q-127 -91 -329 -93q-236 -1 -362 93q-112 84 -112 220q0 28 5 56q26 151 150 237q131 91 349 91q200 0 320 -75q131 -81 131 -232q0 -18 -2 -37zM879 1061h-230l-90 -256q-7 -21 -7 -38q0 -86 161 -86q18 0 33 1zM1107 429l-43 -156h-954
l43 156h954z" />
    <glyph glyph-name="Omega" unicode="&#x3a9;" horiz-adv-x="1056" 
d="M1000 -1h-388v490h184v953l-531 -1l-1 -952h184v-490h-389v130h272v237h-95q-49 0 -80 31t-31 80v977q0 49 31 80t80 31h585q49 0 81.5 -31t32.5 -80v-977q0 -49 -31 -80t-80 -31h-95v-237h271v-130z" />
    <glyph glyph-name="Omega" unicode="&#x2126;" horiz-adv-x="1056" 
d="M1000 -1h-388v490h184v953l-531 -1l-1 -952h184v-490h-389v130h272v237h-95q-49 0 -80 31t-31 80v977q0 49 31 80t80 31h585q49 0 81.5 -31t32.5 -80v-977q0 -49 -31 -80t-80 -31h-95v-237h271v-130z" />
    <glyph glyph-name="ae" unicode="&#xe6;" horiz-adv-x="1831" 
d="M1827 160q-45 -160 -234 -160h-927q-163 0 -160 104q-112 -129 -268 -129q-117 0 -189 73.5t-72 189.5q0 210 158 331q143 111 359 111h716q338 0 338 -203q0 -120 -121 -172h-319l109 215h-209l-86 -235q-10 -26 -10 -47q0 -78 139 -78h776zM647 520h-213l-86 -233
q-8 -22 -8 -40q0 -87 180 -87z" />
    <glyph glyph-name="oslash" unicode="&#xf8;" horiz-adv-x="1190" 
d="M1702 680q-40 -160 -240 -160h-626q33 -22 54 -80.5t17 -101.5q-14 -167 -147 -262q-127 -91 -330 -92q-236 -2 -363 93q-113 84 -113 221q0 27 5 54q26 151 150 237q132 91 352 91h1241zM612 520h-229l-90 -256q-7 -20 -7 -38q0 -86 160 -86q19 0 33 1zM844 815
l-670 -924h-125l662 924h133z" />
    <glyph glyph-name="questiondown" unicode="&#xbf;" horiz-adv-x="1141" 
d="M-6 348q2 184 195 300q112 67 346 130l83 187h357l-70 -189q-27 -74 -119 -105l-151 -38q-270 -90 -270 -289q0 -115 77 -151q49 -23 174 -21q-10 38 -10 68q0 98 78 168.5t188 70.5q111 0 189 -70.5t78 -168.5q0 -104 -84 -174q-78 -66 -183 -66h-372q-510 0 -506 348z
M645 1264q0 74 56.5 126t138.5 52q80 0 136 -52.5t56 -125.5q0 -74 -56.5 -126.5t-137.5 -52.5q-80 0 -136.5 52.5t-56.5 126.5z" />
    <glyph glyph-name="exclamdown" unicode="&#xa1;" horiz-adv-x="920" 
d="M-29 0l500 965h236l-240 -965h-496zM457 1264q0 74 56.5 126t137.5 52q80 0 136.5 -52.5t56.5 -125.5q0 -74 -57 -126.5t-138 -52.5q-80 0 -136 52.5t-56 126.5z" />
    <glyph glyph-name="logicalnot" unicode="&#xac;" horiz-adv-x="942" 
d="M823 332h-124v292h-580v124h704v-416z" />
    <glyph glyph-name="radical" unicode="&#x221a;" horiz-adv-x="973" 
d="M954 1565l-440 -1567h-229l-267 543h254l109 -285l332 1309h241z" />
    <glyph glyph-name="florin" unicode="&#x192;" horiz-adv-x="1468" 
d="M1751 1165q0 -99 -76 -169t-184 -70t-184 70t-76 169q0 34 10 68q-8 6 -25 6q-88 0 -114 -74l-174 -485h295q-42 -160 -207 -160h-144l-151 -424q-87 -244 -371 -352q-77 -29 -174 -34q-8 -1 -188 -1q-114 0 -187 70t-73 172q0 100 76 169.5t184 69.5q107 0 183.5 -69.5
t76.5 -169.5q0 -34 -10 -68q32 -20 139 266l131 371h-229l65 160h221l160 436q105 287 549 291l217 2q113 1 188 -71q72 -71 72 -173z" />
    <glyph glyph-name="approxequal" unicode="&#x2248;" horiz-adv-x="1034" 
d="M864 804q0 -86 -82 -86q-50 0 -104 20l-377 144v-158h-131v209q0 86 82 86q51 0 104 -21l377 -143v158h131v-209zM864 409q0 -86 -82 -86q-50 0 -104 20l-377 144v-158h-131v209q0 86 82 86q51 0 104 -21l377 -143v158h131v-209z" />
    <glyph glyph-name="Delta" unicode="&#x394;" horiz-adv-x="819" 
d="M775 0h-730v122l297 1447h137q10 -58 156 -763q141 -686 140 -688v-118zM637 132l-229 1187l-228 -1187h457z" />
    <glyph glyph-name="Delta" unicode="&#x2206;" horiz-adv-x="819" 
d="M775 0h-730v122l297 1447h137q10 -58 156 -763q141 -686 140 -688v-118zM637 132l-229 1187l-228 -1187h457z" />
    <glyph glyph-name="guillemotleft" unicode="&#xab;" horiz-adv-x="1100" 
d="M1010 152h-244l-246 325l244 326h244l-240 -326zM578 152h-244l-246 325l244 326h243l-239 -326z" />
    <glyph glyph-name="guillemotright" unicode="&#xbb;" horiz-adv-x="1100" 
d="M1012 477l-246 -325h-244l242 325l-240 326h244zM580 477l-246 -325h-244l242 325l-240 326h244z" />
    <glyph glyph-name="ellipsis" unicode="&#x2026;" horiz-adv-x="1960" 
d="M2169 143q0 -74 -57 -126t-138 -52q-80 0 -136 52.5t-56 125.5q0 74 56.5 126.5t137.5 52.5q80 0 136.5 -52.5t56.5 -126.5zM1350 143q0 -74 -57 -126t-138 -52q-80 0 -136 52.5t-56 125.5q0 74 56.5 126.5t137.5 52.5q80 0 136.5 -52.5t56.5 -126.5zM530 143
q0 -74 -56.5 -126t-137.5 -52q-80 0 -136.5 52.5t-56.5 125.5q0 74 57 126.5t138 52.5q80 0 136 -52.5t56 -126.5z" />
    <glyph glyph-name="nonbreakingspace" unicode="&#xa0;" horiz-adv-x="391" 
 />
    <glyph glyph-name="Agrave" unicode="&#xc0;" horiz-adv-x="2257" 
d="M2773 680q-51 -160 -244 -160h-594l-188 -520h-358l188 520h-307q-504 -608 -985 -608q-140 0 -236 52q-121 66 -121 194q0 109 90 213q145 167 439 247q230 62 508 62h194l606 727h482l-258 -727h784zM1841 1241l-438 -561h223zM1024 520q-375 0 -526 -108
q-125 -90 -125 -191q0 -86 90 -86q124 0 310 140q163 121 251 245zM2093 1483h-113l-242 309h269z" />
    <glyph glyph-name="Atilde" unicode="&#xc3;" horiz-adv-x="2257" 
d="M2773 680q-51 -160 -244 -160h-594l-188 -520h-358l188 520h-307q-504 -608 -985 -608q-140 0 -236 52q-121 66 -121 194q0 109 90 213q145 167 439 247q230 62 508 62h194l606 727h482l-258 -727h784zM1841 1241l-438 -561h223zM1024 520q-375 0 -526 -108
q-125 -90 -125 -191q0 -86 90 -86q124 0 310 140q163 121 251 245zM2392 1757l-62 -164q-87 -102 -186 -102q-77 0 -152.5 62t-154.5 62q-98 0 -189 -95l74 157q76 99 184 99q79 0 172 -68q77 -55 134 -55q65 0 180 104z" />
    <glyph glyph-name="Otilde" unicode="&#xd5;" horiz-adv-x="1815" 
d="M1726 893q0 -370 -291 -644q-282 -265 -634 -265q-259 0 -409 140t-150 384q0 126 59 270q56 137 148 248h440q-113 -100 -187 -256q-75 -160 -75 -307q0 -121 50 -205q60 -100 173 -100q188 0 340 243q135 218 135 418q0 159 -92 247.5t-254 88.5h-987l153 252h920
q280 0 455 -114q206 -135 206 -400zM1440 1757l-62 -164q-87 -102 -186 -102q-77 0 -152.5 62t-154.5 62q-98 0 -189 -95l74 157q76 99 184 99q79 0 172 -68q77 -55 134 -55q65 0 180 104z" />
    <glyph glyph-name="OE" unicode="&#x152;" horiz-adv-x="2757" 
d="M2843 1126q0 -119 -97 -200q-91 -78 -213 -78q-124 0 -209 75q-88 78 -88 201q0 78 23 123h-100q-56 0 -96 -50q-38 -46 -38 -103q0 -47 31 -134.5t31 -134.5q0 -56 -116 -112q-167 -80 -216 -121q-117 -98 -117 -258q0 -120 136 -156q67 -18 233 -18h750
q-13 -77 -92 -122q-67 -38 -152 -38h-842q-263 0 -393 119q-208 -135 -477 -135q-256 0 -414 151q-152 145 -152 368q0 89 27 181q53 180 187 342h440q-164 -147 -236 -385q-27 -90 -27 -178q0 -132 58 -216q61 -89 166 -89q168 0 307 211q133 204 133 426q0 160 -81 253
q-91 107 -271 107h-940l213 252h973q369 0 485 -297q38 155 230 235q152 62 346 62h282q133 0 222 -73q94 -79 94 -208z" />
    <glyph glyph-name="oe" unicode="&#x153;" horiz-adv-x="1823" 
d="M1823 160q-26 -88 -115 -130q-64 -30 -135 -30h-1145q-238 0 -362 87q-112 78 -112 211q0 27 5 54q26 151 150 237q132 91 352 91h743q124 0 212 -36q123 -49 123 -156q0 -110 -116 -183h-319l108 215h-211l-73 -207q-17 -47 -17 -78q0 -75 136 -75h776zM633 520h-230
l-90 -256q-6 -17 -6 -31q0 -74 148 -74q28 0 53 3z" />
    <glyph glyph-name="endash" unicode="&#x2013;" horiz-adv-x="1548" 
d="M1343 680l-88 -254h-1224l88 254h1224z" />
    <glyph glyph-name="emdash" unicode="&#x2014;" horiz-adv-x="2183" 
d="M1958 680l-88 -254h-1839l88 254h1839z" />
    <glyph glyph-name="quotedblleft" unicode="&#x201c;" horiz-adv-x="776" 
d="M877 1407l-152 -430h-272l233 430h191zM463 1407l-152 -430h-272l233 430h191z" />
    <glyph glyph-name="quotedblright" unicode="&#x201d;" horiz-adv-x="776" 
d="M967 1407l-234 -430h-190l151 430h273zM553 1407l-234 -430h-190l152 430h272z" />
    <glyph glyph-name="quoteleft" unicode="&#x2018;" horiz-adv-x="485" 
d="M449 1407l-152 -430h-293l275 430h170z" />
    <glyph glyph-name="quoteright" unicode="&#x2019;" horiz-adv-x="485" 
d="M465 1407l-275 -430h-170l152 430h293z" />
    <glyph glyph-name="divide" unicode="&#xf7;" horiz-adv-x="1229" 
d="M1012 1057q0 -80 -56.5 -136.5t-136.5 -56.5t-136 56.5t-56 136.5t56 136t136 56t136.5 -56t56.5 -136zM1317 791l-92 -254h-1043l92 254h1043zM889 258q0 -78 -57 -135t-136 -57q-78 0 -135 57t-57 135t57 135.5t135 57.5q79 0 136 -57.5t57 -135.5z" />
    <glyph glyph-name="lozenge" unicode="&#x25ca;" horiz-adv-x="826" 
d="M798 574l-347 -508h-72l-349 508l349 508h72zM659 574l-245 371l-245 -371l245 -371z" />
    <glyph glyph-name="ydieresis" unicode="&#xff;" horiz-adv-x="1327" 
d="M1331 160q-59 -160 -221 -160h-244q-87 -236 -183 -350q-134 -158 -333 -158q-125 0 -193 73q-59 64 -59 165q0 80 34.5 155t90.5 115h-76q-66 0 -109.5 40.5t-43.5 101.5q0 28 10 57l174 481h363l-187 -520h203l184 520h361l-184 -520h413zM494 -27q-66 0 -122.5 -74.5
t-56.5 -148.5q0 -66 58 -106zM1022 934q0 -58 -43.5 -94.5t-101.5 -36.5q-57 0 -101.5 38.5t-44.5 94.5q0 57 44.5 95t101.5 38q58 0 101 -37q44 -40 44 -98zM611 934q0 -58 -44 -94.5t-102 -36.5q-57 0 -101 38.5t-44 94.5q0 57 44 95t101 38q59 0 101 -37q45 -40 45 -98z
" />
    <glyph glyph-name="Ydieresis" unicode="&#x178;" horiz-adv-x="1726" 
d="M1839 1407l-424 -1217q-31 -88 -107 -139t-169 -51h-774q24 90 93 141.5t163 51.5h432l211 593l-301 -319q-93 -98 -248 -98q-90 0 -152 40q-71 46 -71 132q0 41 14 82l211 591h-180q4 -28 4 -47q0 -99 -77.5 -169t-187.5 -70t-188 70t-78 169q0 104 82 174q78 66 182 66
h650q69 0 112 -40.5t43 -109.5q0 -39 -14 -79l-213 -598l588 753q23 30 74 52t90 22h235zM1609 1624q0 -58 -43.5 -94.5t-101.5 -36.5q-57 0 -101.5 38.5t-44.5 94.5q0 57 44.5 95t101.5 38q58 0 101 -37q44 -40 44 -98zM1198 1624q0 -58 -44 -94.5t-102 -36.5
q-57 0 -101 38.5t-44 94.5q0 57 44 95t101 38q59 0 101 -37q45 -40 45 -98z" />
    <glyph glyph-name="fraction" unicode="&#x2044;" horiz-adv-x="793" 
d="M1418 1422l-1784 -1478h-235l1784 1478h235z" />
    <glyph glyph-name="fraction" unicode="&#x2215;" horiz-adv-x="793" 
d="M1418 1422l-1784 -1478h-235l1784 1478h235z" />
    <glyph glyph-name="currency" unicode="&#xa4;" horiz-adv-x="1221" 
d="M1095 1099l-177 -178v-395l177 -177l-118 -118l-194 194h-330l-193 -194l-118 118l177 178v395l-177 177l118 118l194 -194h330l193 194zM754 574v302h-271v-303z" />
    <glyph glyph-name="guilsinglleft" unicode="&#x2039;" horiz-adv-x="682" 
d="M586 152h-244l-246 325l244 326h244l-240 -326z" />
    <glyph glyph-name="guilsinglright" unicode="&#x203a;" horiz-adv-x="682" 
d="M586 477l-246 -325h-244l242 325l-240 326h244z" />
    <glyph glyph-name="fi" unicode="&#xf001;" horiz-adv-x="1724" 
d="M1663 1073q0 -99 -77.5 -169t-186.5 -70q-111 0 -188.5 69.5t-77.5 169.5q0 99 77.5 168.5t188.5 69.5q109 0 186.5 -70t77.5 -168zM1737 160q-26 -88 -108 -130q-59 -30 -128 -30h-395q-143 0 -143 121q0 33 14 72l117 327h-508q92 -85 84 -299q-10 -253 -270 -451
q-234 -179 -449 -173q-41 1 -73 32t-32 74q0 17 7 35l256 721q-52 14 -90 53q-44 45 -44 97q0 36 21 71h188l187 526h360l-221 -526h1003l-182 -520h406zM401 201q0 82 -53 123l-256 -576q81 42 170 144q87 98 113 174.5t26 134.5z" />
    <glyph glyph-name="fi" unicode="&#xfb01;" horiz-adv-x="1724" 
d="M1663 1073q0 -99 -77.5 -169t-186.5 -70q-111 0 -188.5 69.5t-77.5 169.5q0 99 77.5 168.5t188.5 69.5q109 0 186.5 -70t77.5 -168zM1737 160q-26 -88 -108 -130q-59 -30 -128 -30h-395q-143 0 -143 121q0 33 14 72l117 327h-508q92 -85 84 -299q-10 -253 -270 -451
q-234 -179 -449 -173q-41 1 -73 32t-32 74q0 17 7 35l256 721q-52 14 -90 53q-44 45 -44 97q0 36 21 71h188l187 526h360l-221 -526h1003l-182 -520h406zM401 201q0 82 -53 123l-256 -576q81 42 170 144q87 98 113 174.5t26 134.5z" />
    <glyph glyph-name="fl" unicode="&#xf002;" horiz-adv-x="1733" 
d="M1763 1407l-434 -1247h406q-26 -88 -108 -130q-59 -30 -128 -30h-395q-143 0 -143 121q0 33 14 72l115 327h-504q92 -85 84 -299q-10 -253 -270 -451q-234 -179 -449 -173q-41 1 -73 32t-32 74q0 17 7 35l256 721q-52 14 -90 53q-44 45 -44 97q0 36 21 71h188l187 526
h360l-221 -526h635l256 727h362zM401 201q0 82 -53 123l-256 -576q81 42 170 144q87 98 113 174.5t26 134.5z" />
    <glyph glyph-name="fl" unicode="&#xfb02;" horiz-adv-x="1733" 
d="M1763 1407l-434 -1247h406q-26 -88 -108 -130q-59 -30 -128 -30h-395q-143 0 -143 121q0 33 14 72l115 327h-504q92 -85 84 -299q-10 -253 -270 -451q-234 -179 -449 -173q-41 1 -73 32t-32 74q0 17 7 35l256 721q-52 14 -90 53q-44 45 -44 97q0 36 21 71h188l187 526
h360l-221 -526h635l256 727h362zM401 201q0 82 -53 123l-256 -576q81 42 170 144q87 98 113 174.5t26 134.5z" />
    <glyph glyph-name="daggerdbl" unicode="&#x2021;" horiz-adv-x="1159" 
d="M1313 883q0 -80 -60 -135.5t-145 -55.5q-45 0 -76 13q-84 33 -182 106l-129 -459l70 -37q6 75 65 127t139 52q86 0 146.5 -55.5t60.5 -133.5q0 -80 -60.5 -136t-146.5 -56q-40 0 -75 14q-97 39 -232 109l-170 -596l-78 49l97 610l-48 18q-4 -75 -63.5 -126.5
t-140.5 -51.5q-87 0 -147 55.5t-60 135.5q0 78 60.5 133t146.5 55q46 0 102 -24q40 -18 168 -70l70 444l-23 27q-6 -75 -65.5 -126.5t-141.5 -51.5q-84 0 -144.5 56.5t-60.5 135.5t60.5 134t144.5 55q48 0 105 -25q92 -40 145 -82l64 408h327l-155 -469q-6 -4 -6 -10
q0 -13 28 -27q5 76 63.5 128t141.5 52q84 0 144.5 -56t60.5 -134z" />
    <glyph glyph-name="periodcentered" unicode="&#xb7;" horiz-adv-x="494" 
d="M414 471q0 -67 -48 -115.5t-114 -48.5q-68 0 -116 48t-48 116q0 66 48 114t114 48q67 0 115.5 -48t48.5 -114z" />
    <glyph glyph-name="periodcentered" unicode="&#x2219;" horiz-adv-x="494" 
d="M414 471q0 -67 -48 -115.5t-114 -48.5q-68 0 -116 48t-48 116q0 66 48 114t114 48q67 0 115.5 -48t48.5 -114z" />
    <glyph glyph-name="quotesinglbase" unicode="&#x201a;" horiz-adv-x="485" 
d="M465 295l-275 -430h-170l152 430h293z" />
    <glyph glyph-name="quotedblbase" unicode="&#x201e;" horiz-adv-x="776" 
d="M967 295l-234 -430h-190l151 430h273zM553 295l-234 -430h-190l152 430h272z" />
    <glyph glyph-name="perthousand" unicode="&#x2030;" horiz-adv-x="1640" 
d="M647 1237q0 -80 -61.5 -136.5t-147.5 -56.5t-147.5 56.5t-61.5 134.5q0 80 61.5 136t147.5 56t147.5 -56t61.5 -134zM1633 164q0 -79 -61.5 -135t-147.5 -56t-147.5 56t-61.5 135q0 80 61.5 136t147.5 56t147.5 -56t61.5 -136zM1167 1407l-888 -1407h-234l877 1407h245z
M1040 164q0 -79 -61.5 -135t-147.5 -56t-147 56t-61 135q0 80 61 136t147 56q87 0 148 -56t61 -136z" />
    <glyph glyph-name="Acircumflex" unicode="&#xc2;" horiz-adv-x="2257" 
d="M2773 680q-51 -160 -244 -160h-594l-188 -520h-358l188 520h-307q-504 -608 -985 -608q-140 0 -236 52q-121 66 -121 194q0 109 90 213q145 167 439 247q230 62 508 62h194l606 727h482l-258 -727h784zM1841 1241l-438 -561h223zM1024 520q-375 0 -526 -108
q-125 -90 -125 -191q0 -86 90 -86q124 0 310 140q163 121 251 245zM2310 1495h-172l-84 121l-156 -121h-161l225 254h219z" />
    <glyph glyph-name="Ecircumflex" unicode="&#xca;" horiz-adv-x="1587" 
d="M1642 1167q0 -99 -77.5 -169t-188.5 -70q-109 0 -186.5 70t-77.5 169q0 46 14 80h-118q-57 0 -96.5 -47.5t-39.5 -105.5q0 -47 32 -134.5t32 -134.5q0 -56 -116 -112q-167 -80 -216 -121q-117 -98 -117 -258q0 -120 136 -156q67 -18 233 -18h729q-13 -77 -91 -122
q-68 -38 -153 -38h-821q-184 0 -311 63q-164 82 -164 246q0 178 178 325q146 120 344 175q-57 125 -57 227q0 195 206 294q159 77 378 77h305q101 0 172 -71.5t71 -168.5zM1438 1495h-172l-84 121l-156 -121h-161l225 254h219z" />
    <glyph glyph-name="Aacute" unicode="&#xc1;" horiz-adv-x="2257" 
d="M2773 680q-51 -160 -244 -160h-594l-188 -520h-358l188 520h-307q-504 -608 -985 -608q-140 0 -236 52q-121 66 -121 194q0 109 90 213q145 167 439 247q230 62 508 62h194l606 727h482l-258 -727h784zM1841 1241l-438 -561h223zM1024 520q-375 0 -526 -108
q-125 -90 -125 -191q0 -86 90 -86q124 0 310 140q163 121 251 245zM2362 1802l-308 -309h-149l182 309h275z" />
    <glyph glyph-name="Edieresis" unicode="&#xcb;" horiz-adv-x="1587" 
d="M1642 1167q0 -99 -77.5 -169t-188.5 -70q-109 0 -186.5 70t-77.5 169q0 46 14 80h-118q-57 0 -96.5 -47.5t-39.5 -105.5q0 -47 32 -134.5t32 -134.5q0 -56 -116 -112q-167 -80 -216 -121q-117 -98 -117 -258q0 -120 136 -156q67 -18 233 -18h729q-13 -77 -91 -122
q-68 -38 -153 -38h-821q-184 0 -311 63q-164 82 -164 246q0 178 178 325q146 120 344 175q-57 125 -57 227q0 195 206 294q159 77 378 77h305q101 0 172 -71.5t71 -168.5zM1546 1626q0 -58 -43.5 -94.5t-101.5 -36.5q-57 0 -101.5 38.5t-44.5 94.5q0 57 44.5 95t101.5 38
q58 0 101 -37q44 -40 44 -98zM1135 1626q0 -58 -44 -94.5t-102 -36.5q-57 0 -101 38.5t-44 94.5q0 57 44 95t101 38q59 0 101 -37q45 -40 45 -98z" />
    <glyph glyph-name="Egrave" unicode="&#xc8;" horiz-adv-x="1587" 
d="M1642 1167q0 -99 -77.5 -169t-188.5 -70q-109 0 -186.5 70t-77.5 169q0 46 14 80h-118q-57 0 -96.5 -47.5t-39.5 -105.5q0 -47 32 -134.5t32 -134.5q0 -56 -116 -112q-167 -80 -216 -121q-117 -98 -117 -258q0 -120 136 -156q67 -18 233 -18h729q-13 -77 -91 -122
q-68 -38 -153 -38h-821q-184 0 -311 63q-164 82 -164 246q0 178 178 325q146 120 344 175q-57 125 -57 227q0 195 206 294q159 77 378 77h305q101 0 172 -71.5t71 -168.5zM1315 1493h-113l-242 309h269z" />
    <glyph glyph-name="Iacute" unicode="&#xcd;" horiz-adv-x="1473" 
d="M1550 1407l-391 -1110q-104 -297 -414 -297h-700q44 112 77 159q58 83 136 83q12 0 25 -2l467 -74l350 989h-578q-128 0 -230 -75q-112 -82 -112 -206q0 -86 58 -98q19 93 98 149q74 54 170 54q104 0 180 -64q82 -68 82 -176q0 -120 -98 -187q-84 -58 -209 -58
q-193 0 -321 90q-142 101 -142 278q0 265 210 414q185 131 462 131h880zM1583 1804l-308 -309h-149l182 309h275z" />
    <glyph glyph-name="Icircumflex" unicode="&#xce;" horiz-adv-x="1473" 
d="M1550 1407l-391 -1110q-104 -297 -414 -297h-700q44 112 77 159q58 83 136 83q12 0 25 -2l467 -74l350 989h-578q-128 0 -230 -75q-112 -82 -112 -206q0 -86 58 -98q19 93 98 149q74 54 170 54q104 0 180 -64q82 -68 82 -176q0 -120 -98 -187q-84 -58 -209 -58
q-193 0 -321 90q-142 101 -142 278q0 265 210 414q185 131 462 131h880zM1573 1495h-172l-84 121l-156 -121h-161l225 254h219z" />
    <glyph glyph-name="Idieresis" unicode="&#xcf;" horiz-adv-x="1473" 
d="M1550 1407l-391 -1110q-104 -297 -414 -297h-700q44 112 77 159q58 83 136 83q12 0 25 -2l467 -74l350 989h-578q-128 0 -230 -75q-112 -82 -112 -206q0 -86 58 -98q19 93 98 149q74 54 170 54q104 0 180 -64q82 -68 82 -176q0 -120 -98 -187q-84 -58 -209 -58
q-193 0 -321 90q-142 101 -142 278q0 265 210 414q185 131 462 131h880zM1636 1624q0 -58 -43.5 -94.5t-101.5 -36.5q-57 0 -101.5 38.5t-44.5 94.5q0 57 44.5 95t101.5 38q58 0 101 -37q44 -40 44 -98zM1225 1624q0 -58 -44 -94.5t-102 -36.5q-57 0 -101 38.5t-44 94.5
q0 57 44 95t101 38q59 0 101 -37q45 -40 45 -98z" />
    <glyph glyph-name="Igrave" unicode="&#xcc;" horiz-adv-x="1473" 
d="M1550 1407l-391 -1110q-104 -297 -414 -297h-700q44 112 77 159q58 83 136 83q12 0 25 -2l467 -74l350 989h-578q-128 0 -230 -75q-112 -82 -112 -206q0 -86 58 -98q19 93 98 149q74 54 170 54q104 0 180 -64q82 -68 82 -176q0 -120 -98 -187q-84 -58 -209 -58
q-193 0 -321 90q-142 101 -142 278q0 265 210 414q185 131 462 131h880zM1436 1493h-113l-242 309h269z" />
    <glyph glyph-name="Oacute" unicode="&#xd3;" horiz-adv-x="1815" 
d="M1726 893q0 -370 -291 -644q-282 -265 -634 -265q-259 0 -409 140t-150 384q0 126 59 270q56 137 148 248h440q-113 -100 -187 -256q-75 -160 -75 -307q0 -121 50 -205q60 -100 173 -100q188 0 340 243q135 218 135 418q0 159 -92 247.5t-254 88.5h-987l153 252h920
q280 0 455 -114q206 -135 206 -400zM1250 1804l-308 -309h-149l182 309h275z" />
    <glyph glyph-name="Ocircumflex" unicode="&#xd4;" horiz-adv-x="1815" 
d="M1726 893q0 -370 -291 -644q-282 -265 -634 -265q-259 0 -409 140t-150 384q0 126 59 270q56 137 148 248h440q-113 -100 -187 -256q-75 -160 -75 -307q0 -121 50 -205q60 -100 173 -100q188 0 340 243q135 218 135 418q0 159 -92 247.5t-254 88.5h-987l153 252h920
q280 0 455 -114q206 -135 206 -400zM1343 1493h-172l-84 121l-156 -121h-161l225 254h219z" />
    <glyph glyph-name="apple" 
d="M128 0v1633h768v-1633h-768zM256 128h512v1377h-512v-1377z" />
    <glyph glyph-name="Ograve" unicode="&#xd2;" horiz-adv-x="1815" 
d="M1726 893q0 -370 -291 -644q-282 -265 -634 -265q-259 0 -409 140t-150 384q0 126 59 270q56 137 148 248h440q-113 -100 -187 -256q-75 -160 -75 -307q0 -121 50 -205q60 -100 173 -100q188 0 340 243q135 218 135 418q0 159 -92 247.5t-254 88.5h-987l153 252h920
q280 0 455 -114q206 -135 206 -400zM1119 1487h-113l-242 309h269z" />
    <glyph glyph-name="Uacute" unicode="&#xda;" horiz-adv-x="1634" 
d="M1665 1186q0 -115 -53 -295q-46 -155 -107 -283q-161 -339 -315 -472q-198 -171 -533 -171q-176 0 -284 75q-125 87 -125 255q0 77 28 158l250 702h-559l152 252h858l-328 -936q-26 -76 -26 -143q0 -76 50 -119q47 -41 124 -41q273 0 477 453q80 176 102 307
q-118 0 -205 70q-94 75 -94 190q0 111 92 187q87 73 201 73q121 0 205 -70q90 -74 90 -192zM1383 1804l-308 -309h-149l182 309h275z" />
    <glyph glyph-name="Ucircumflex" unicode="&#xdb;" horiz-adv-x="1634" 
d="M1665 1186q0 -115 -53 -295q-46 -155 -107 -283q-161 -339 -315 -472q-198 -171 -533 -171q-176 0 -284 75q-125 87 -125 255q0 77 28 158l250 702h-559l152 252h858l-328 -936q-26 -76 -26 -143q0 -76 50 -119q47 -41 124 -41q273 0 477 453q80 176 102 307
q-118 0 -205 70q-94 75 -94 190q0 111 92 187q87 73 201 73q121 0 205 -70q90 -74 90 -192zM1335 1493h-172l-84 121l-156 -121h-161l225 254h219z" />
    <glyph glyph-name="Ugrave" unicode="&#xd9;" horiz-adv-x="1634" 
d="M1665 1186q0 -115 -53 -295q-46 -155 -107 -283q-161 -339 -315 -472q-198 -171 -533 -171q-176 0 -284 75q-125 87 -125 255q0 77 28 158l250 702h-559l152 252h858l-328 -936q-26 -76 -26 -143q0 -76 50 -119q47 -41 124 -41q273 0 477 453q80 176 102 307
q-118 0 -205 70q-94 75 -94 190q0 111 92 187q87 73 201 73q121 0 205 -70q90 -74 90 -192zM1166 1483h-113l-242 309h269z" />
    <glyph glyph-name="dotlessi" unicode="&#x131;" horiz-adv-x="762" 
d="M762 160q-26 -88 -108 -130q-59 -30 -128 -30h-395q-143 0 -143 120q0 34 14 73l174 487h363l-185 -520h408z" />
    <glyph glyph-name="circumflex" unicode="&#x2c6;" 
d="M1067 809h-172l-84 121l-156 -121h-161l225 254h219z" />
    <glyph glyph-name="tilde" unicode="&#x2dc;" 
d="M1225 1032l-62 -164q-87 -102 -186 -102q-77 0 -152.5 62t-154.5 62q-98 0 -189 -95l74 157q76 99 184 99q79 0 172 -68q77 -55 134 -55q65 0 180 104z" />
    <glyph glyph-name="macron" unicode="&#xaf;" 
d="M1159 1022l-78 -193h-600l78 193h600z" />
    <glyph glyph-name="macron" unicode="&#x2c9;" 
d="M1159 1022l-78 -193h-600l78 193h600z" />
    <glyph glyph-name="breve" unicode="&#x2d8;" 
d="M1180 1030q-17 -108 -106 -181t-208 -73q-103 0 -164.5 57.5t-61.5 147.5q0 24 5 49h162q-5 -19 -5 -35q0 -84 99 -84q122 0 137 119h142z" />
    <glyph glyph-name="dotaccent" unicode="&#x2d9;" 
d="M1073 942q0 -60 -41.5 -101.5t-101.5 -41.5t-102 41.5t-42 101.5t42 101.5t102 41.5t101.5 -41.5t41.5 -101.5z" />
    <glyph glyph-name="ring" unicode="&#x2da;" 
d="M1114 985q0 -75 -54 -128.5t-130 -53.5t-130.5 53.5t-54.5 128.5q0 77 54.5 130.5t130.5 53.5q77 0 130.5 -53.5t53.5 -130.5zM1020 985q0 37 -26 63t-62 27q-37 1 -63 -26t-27 -64q-1 -34 24.5 -60t61.5 -28t64 25t28 63z" />
    <glyph glyph-name="cedilla" unicode="&#xb8;" 
d="M430 -207q0 -88 -56 -141q-66 -62 -194 -62h-346q33 160 246 160h162q19 8 23 11q8 5 9 18q3 28 -15 45t-48 16h-111l35 88l111 88h90l-98 -73q192 0 192 -150z" />
    <glyph glyph-name="hungarumlaut" unicode="&#x2dd;" 
d="M1268 1124l-299 -315h-191l217 315h273zM934 1124l-299 -315h-191l218 315h272z" />
    <glyph glyph-name="ogonek" unicode="&#x2db;" 
d="M688 -250q-33 -160 -246 -160h-186q-76 0 -134 37q-68 42 -68 115q0 20 5 41q20 83 131 215h201q-53 -28 -97.5 -84.5t-44.5 -101.5q0 -62 93 -62h346z" />
    <glyph glyph-name="caron" unicode="&#x2c7;" 
d="M1069 1063l-225 -254h-219l-129 254h172l84 -121l155 121h162z" />
    <glyph glyph-name="Lslash" unicode="&#x141;" horiz-adv-x="2109" 
d="M2195 1186q0 -103 -83 -173q-79 -67 -183 -67q-117 0 -195 77t-69 194q-32 4 -96 -25q-142 -64 -174 -475q-33 -406 -473 -557h1185q-43 -160 -268 -160h-1835q84 242 207 242q55 0 191 -44t196 -44q172 0 281 313l159 461q174 502 867 502q116 0 199 -62q91 -69 91 -182
zM1714 854q-40 -102 -111 -152q-63 -45 -190 -73q-3 -3 -713 -158l57 174z" />
    <glyph glyph-name="lslash" unicode="&#x142;" horiz-adv-x="766" 
d="M774 160q-25 -88 -115 -130q-63 -30 -135 -30h-385q-148 0 -148 101q0 26 11 59l371 1046h354l-373 -1046h420zM868 831l-41 -163l-866 -90l35 163z" />
    <glyph glyph-name="Scaron" unicode="&#x160;" horiz-adv-x="1972" 
d="M2247 1165q0 -99 -78.5 -169t-188.5 -70t-188 70t-78 169q0 23 8 60q-45 4 -57 4q-152 0 -152 -127q0 -65 89.5 -291t89.5 -354q0 -274 -303 -411q-226 -101 -529 -101q-277 0 -491 77q-301 108 -301 332q0 326 555 326h381l73 -160h-297q-112 0 -195 -39
q-108 -51 -108 -151q0 -113 149 -177q115 -49 246 -49q166 0 277 73q129 84 129 241q0 108 -82 310t-82 314q0 365 621 365h247q102 0 182 -69q83 -73 83 -173zM2027 1747l-225 -254h-219l-129 254h172l84 -121l155 121h162z" />
    <glyph glyph-name="scaron" unicode="&#x161;" horiz-adv-x="1206" 
d="M1208 160q-4 -67 -76.5 -113.5t-158.5 -46.5h-760q-219 0 -219 134q0 12 2 26q8 60 64 93q48 29 110 28q108 -3 293 -119q53 66 53 134q0 34 -43 155l-113 -103h-200l266 246q-18 31 -25 51q-13 37 -14 84l246 262q166 -28 166 -151q0 -72 -43 -133l75 -196
q46 -126 46 -204q0 -86 -68 -147h399zM993 1323l-225 -254h-219l-129 254h172l84 -121l155 121h162z" />
    <glyph glyph-name="Zcaron" unicode="&#x17d;" horiz-adv-x="1597" 
d="M1950 680q-48 -160 -187 -160h-616q2 -14 2 -43q0 -291 -295 -526q-278 -221 -578 -221q-141 0 -225 79.5t-76 215.5q18 268 251 451q205 162 479 196q-53 104 -170 194l552 289h-751l151 252h1041q1 -117 -29 -184q-36 -80 -131 -131l-403 -218q107 -84 145 -194h840z
M791 485q-4 15 -17 35q-87 -10 -196 -81q-103 -66 -162 -142q-154 -198 -154 -322q0 -88 78 -88q144 0 299 183.5t155 364.5q0 26 -3 50zM1376 1749l-225 -254h-219l-129 254h172l84 -121l155 121h162z" />
    <glyph glyph-name="zcaron" unicode="&#x17e;" horiz-adv-x="1059" 
d="M1061 160q-47 -160 -232 -160h-653q-188 0 -188 98q0 64 51 117l297 305h-340l55 160h846l-475 -520h639zM891 1051l-225 -254h-219l-129 254h172l84 -121l155 121h162z" />
    <glyph glyph-name="brokenbar" unicode="&#xa6;" horiz-adv-x="365" 
d="M250 813h-129v696h129v-696zM250 -208h-129v696h129v-696z" />
    <glyph glyph-name="Eth" unicode="&#xd0;" horiz-adv-x="1647" 
d="M992 680l-61 -160h-821l61 160h821zM1745 940q0 -183 -127 -387q-168 -269 -488 -417q-295 -136 -634 -136h-330l362 1026h361l-307 -866q197 0 390.5 121t282.5 299q80 157 80 262q0 172 -96 247q-86 66 -264 66h-967l154 252h968q251 0 418 -106q197 -125 197 -361z
" />
    <glyph glyph-name="eth" unicode="&#xf0;" horiz-adv-x="1262" 
d="M1378 1071l-18 -149l-236 -27l-225 -647q-86 -248 -356 -248h-307q-102 0 -166 85q-58 77 -58 183q0 44 13 90q42 160 187 246q130 76 306 76h168l62 174l-211 -23l18 150l244 27l71 200h365l-59 -159zM631 520h-172l-54 -139q-38 -106 -38 -152q0 -69 98 -69h39z" />
    <glyph glyph-name="Yacute" unicode="&#xdd;" horiz-adv-x="1726" 
d="M1839 1407l-424 -1217q-31 -88 -107 -139t-169 -51h-774q24 90 93 141.5t163 51.5h432l211 593l-301 -319q-93 -98 -248 -98q-90 0 -152 40q-71 46 -71 132q0 41 14 82l211 591h-180q4 -28 4 -47q0 -99 -77.5 -169t-187.5 -70t-188 70t-78 169q0 104 82 174q78 66 182 66
h650q69 0 112 -40.5t43 -109.5q0 -39 -14 -79l-213 -598l588 753q23 30 74 52t90 22h235zM1670 1802l-308 -309h-149l182 309h275z" />
    <glyph glyph-name="yacute" unicode="&#xfd;" horiz-adv-x="1327" 
d="M1331 160q-59 -160 -221 -160h-244q-87 -236 -183 -350q-134 -158 -333 -158q-125 0 -193 73q-59 64 -59 165q0 80 34.5 155t90.5 115h-76q-66 0 -109.5 40.5t-43.5 101.5q0 28 10 57l174 481h363l-187 -520h203l184 520h361l-184 -520h413zM494 -27q-66 0 -122.5 -74.5
t-56.5 -148.5q0 -66 58 -106zM961 1108l-308 -309h-149l182 309h275z" />
    <glyph glyph-name="Thorn" unicode="&#xde;" horiz-adv-x="1640" 
d="M1802 1055q0 -293 -400 -486q-196 -95 -654 -211l-125 -358h-365l406 1155h-637l182 252h543l82 231h362l-80 -231q315 0 441 -38q245 -74 245 -314zM1395 946q0 209 -275 209h-94l-195 -561q201 47 340 115q224 107 224 237z" />
    <glyph glyph-name="thorn" unicode="&#xfe;" horiz-adv-x="1311" 
d="M1309 160q-9 -77 -81 -121q-64 -39 -151 -39h-545q-123 0 -126 127l93 37q66 30 100 73q46 57 46 146q0 55 -51 97t-113 40l-313 -905h-363l555 1585h363l-188 -520q225 0 298 -21q178 -49 171 -229q-4 -80 -71 -161q-69 -84 -159 -109h535z" />
    <glyph glyph-name="minus" unicode="&#xad;" horiz-adv-x="1229" 
d="M1230 796l-96 -263h-1125l96 263h1125z" />
    <glyph glyph-name="minus" unicode="&#x2212;" horiz-adv-x="1229" 
d="M1230 796l-96 -263h-1125l96 263h1125z" />
    <glyph glyph-name="multiply" unicode="&#xd7;" horiz-adv-x="1229" 
d="M1166 1116l-388 -467l217 -509h-278l-123 287l-238 -287h-278l421 509l-200 467h280l104 -244l202 244h281z" />
    <glyph glyph-name="onesuperior" unicode="&#xb9;" horiz-adv-x="731" 
d="M679 1222l-269 -714h-317l253 692h-219l112 207h326q129 0 129 -112q0 -34 -15 -73z" />
    <glyph glyph-name="twosuperior" unicode="&#xb2;" horiz-adv-x="1116" 
d="M1069 1201q0 -177 -176 -310q-129 -96 -318 -150h404l-77 -222h-793l53 183q163 56 344 183q227 159 227 283q0 128 -98 128q-11 0 -22 -2q3 -17 3 -27q0 -71 -69 -115q-60 -39 -133 -39q-74 0 -133 39q-68 45 -68 115q0 101 155 147q103 30 244 30q457 0 457 -243z" />
    <glyph glyph-name="threesuperior" unicode="&#xb3;" horiz-adv-x="1087" 
d="M1037 1406l-216 -322q76 -34 131 -98q64 -72 64 -146q0 -188 -177 -282q-154 -82 -413 -82q-114 0 -200 30q-124 44 -124 137q0 71 68 115q59 39 133 39q75 0 134 -39q69 -44 69 -115q0 -18 -8 -38q83 4 133 50q54 47 54 127q0 89 -93 153q-81 55 -177 62l152 200h-336
l74 209h732z" />
    <glyph glyph-name="onehalf" unicode="&#xbd;" horiz-adv-x="2231" 
d="M679 1222l-269 -714h-317l253 692h-219l112 207h326q129 0 129 -112q0 -34 -15 -73zM1889 1422l-1784 -1478h-235l1784 1478h235zM2135 682q0 -177 -176 -310q-129 -96 -318 -150h404l-77 -222h-793l53 183q163 56 344 183q227 159 227 283q0 128 -98 128q-11 0 -22 -2
q3 -17 3 -27q0 -71 -69 -115q-60 -39 -133 -39q-74 0 -133 39q-68 45 -68 115q0 101 155 147q103 30 244 30q457 0 457 -243z" />
    <glyph glyph-name="onequarter" unicode="&#xbc;" horiz-adv-x="2313" 
d="M679 1222l-269 -714h-317l253 692h-219l112 207h326q129 0 129 -112q0 -34 -15 -73zM1936 1422l-1784 -1478h-235l1784 1478h235zM2293 474l-83 -222h-196l-88 -252h-300l92 252h-377q-119 0 -119 74q0 35 27 61l235 227q-59 11 -99 49q-45 41 -45 98q0 74 64 115
q55 35 133 35q82 0 142 -39q68 -45 68 -124q0 -64 -57 -118l-165 -156h262l160 426h292l-150 -426h204z" />
    <glyph glyph-name="threequarters" unicode="&#xbe;" horiz-adv-x="2749" 
d="M2289 1422l-1784 -1478h-235l1784 1478h235zM2669 474l-83 -222h-196l-88 -252h-300l92 252h-377q-119 0 -119 74q0 35 27 61l235 227q-59 11 -99 49q-45 41 -45 98q0 74 64 115q55 35 133 35q82 0 142 -39q68 -45 68 -124q0 -64 -57 -118l-165 -156h262l160 426h292
l-150 -426h204zM1037 1406l-216 -322q76 -34 131 -98q64 -72 64 -146q0 -188 -177 -282q-154 -82 -413 -82q-114 0 -200 30q-124 44 -124 137q0 71 68 115q59 39 133 39q75 0 134 -39q69 -44 69 -115q0 -18 -8 -38q83 4 133 50q54 47 54 127q0 89 -93 153q-81 55 -177 62
l152 200h-336l74 209h732z" />
    <glyph glyph-name="glyph247" horiz-adv-x="1647" 
d="M821 680l-61 -160h-821l61 160h821z" />
    <glyph glyph-name="glyph248" horiz-adv-x="2171" 
d="M1608 854q-40 -102 -111 -152q-63 -45 -190 -73q-3 -3 -713 -158l57 174z" />
    <glyph glyph-name="glyph249" horiz-adv-x="711" 
d="M868 831l-41 -163l-866 -90l35 163z" />
    <glyph glyph-name="glyph250" horiz-adv-x="1745" 
d="M1540 1526l-917 -1684h-195l918 1684h194z" />
    <glyph glyph-name="glyph251" horiz-adv-x="1190" 
d="M844 815l-670 -924h-125l662 924h133z" />
    <glyph glyph-name="glyph252" horiz-adv-x="1182" 
d="M1186 981l-83 -222h-196l-88 -252h-300l92 252h-377q-119 0 -119 74q0 35 27 61l235 227q-59 11 -99 49q-45 41 -45 98q0 74 64 115q55 35 133 35q82 0 142 -39q68 -45 68 -124q0 -64 -57 -118l-165 -156h262l160 426h292l-150 -426h204z" />
    <glyph glyph-name="glyph253" horiz-adv-x="2257" 
d="M2247 1407l-500 -1407h-358l188 520h-307q-504 -608 -985 -608q-140 0 -236 52q-121 66 -121 194q0 109 90 213q145 167 439 247q230 62 508 62h194l606 727h482zM1841 1241l-438 -561h223zM1024 520q-244 0 -372 -35q-229 -63 -277 -247q0 -4 -1 -11t-1 -10
q0 -35 25.5 -58.5t64.5 -23.5q124 0 310 140q163 121 251 245z" />
    <glyph glyph-name="glyph254" horiz-adv-x="2134" 
d="M2249 1407l-498 -1407h-360l186 520h-338q-284 -697 -895 -698q-165 0 -271 65q-128 78 -128 234q0 122 82 246q207 313 761 313h146l309 879h361l-310 -879h338l256 727h361zM877 520h-29q-197 0 -354 -101q-181 -116 -181 -302q0 -129 115 -129q144 0 285 202
q105 151 164 330z" />
    <glyph glyph-name="glyph255" horiz-adv-x="1597" 
d="M1630 680q-51 -160 -186 -160h-297q2 -14 2 -43q0 -291 -295 -526q-278 -221 -578 -221q-141 0 -225 79.5t-76 215.5q18 268 251 451q205 162 479 196q-53 104 -170 194l552 289h-751l151 252h1041q1 -117 -29 -184q-36 -80 -131 -131l-403 -218q107 -84 145 -194h520z
M791 485q-4 15 -17 35q-87 -10 -196 -81q-103 -66 -162 -142q-154 -198 -154 -322q0 -88 78 -88q144 0 299 183.5t155 364.5q0 26 -3 50zM0 0z" />
    <glyph glyph-name="glyph256" horiz-adv-x="1198" 
d="M1401 680q-66 -160 -221 -160h-131q-39 -286 -295 -421q-188 -99 -439 -99h-182q-49 0 -86 24q-49 32 -49 97q0 37 16 84l357 1001h360l-373 -1044q215 -5 306 172q-93 58 -93 158q0 78 60.5 133t144.5 55h625z" />
    <glyph glyph-name="glyph257" horiz-adv-x="1184" 
d="M1188 160q-8 -78 -94 -124q-67 -36 -138 -36h-661q-144 0 -224 55t-80 150q0 16 3 33q16 117 174 168q-27 43 -27 90q0 78 66 131t172 53h379q84 0 141 -55t57 -133q0 -77 -59 -132t-143 -55q-85 0 -144 55t-59 132q0 6 6 36q-19 3 -37 3q-96 0 -112 -48q-4 -9 -4 -21
q0 -79 100 -155l-170 -147h854z" />
    <glyph glyph-name="glyph258" horiz-adv-x="961" 
d="M1038 680q-32 -160 -258 -160h-194q92 -85 84 -299q-10 -253 -270 -451q-234 -179 -449 -173q-41 1 -73 32t-32 74q0 17 7 35l256 721q-52 14 -90 53q-44 45 -44 97q0 36 21 71h188l187 526h360l-221 -526h528zM401 201q0 82 -53 123l-256 -576q81 42 170 144
q87 98 113 174.5t26 134.5z" />
    <glyph glyph-name="glyph259" horiz-adv-x="1382" 
d="M1366 1094q0 -99 -81 -169.5t-189 -70.5t-185 70t-77 170q0 33 10 67q-9 3 -19 3q-52 0 -112 -69q-55 -63 -86 -145l-103 -270h277l-66 -160h-268l-270 -774h-363l275 774h-230l66 160h221l72 190q99 264 298 375q171 94 455 94q375 0 375 -245z" />
    <glyph glyph-name="glyph260" horiz-adv-x="754" 
d="M922 1198q0 -170 -168 -283q-149 -100 -328 -100q-155 0 -273 78q-135 89 -135 237q0 171 168 284q150 102 328 102q155 0 273 -79q135 -90 135 -239zM766 1204q0 111 -73 184.5t-183 73.5q-135 0 -235.5 -101.5t-100.5 -236.5q0 -111 73 -185.5t183 -74.5
q135 0 235.5 103t100.5 237zM760 160q-22 -77 -90 -120q-63 -40 -146 -40h-395q-143 0 -143 121q0 31 14 72l174 487h363l-183 -520h406z" />
    <glyph glyph-name="glyph261" horiz-adv-x="1182" 
d="M1163 680l-190 -518q-40 -111 -125 -159q-49 -28 -92 -28q-151 0 -199 97l-125 250l-266 -732h-361l398 1090h207q84 0 102 -62l156 -311l75 215q56 158 222 158h198z" />
    <glyph glyph-name="glyph262" horiz-adv-x="1047" 
d="M922 336q-18 -166 -150 -260q-128 -91 -330 -92q-235 -2 -361 92q-113 84 -113 221q0 27 5 55q27 151 151 237q131 91 349 91q199 0 320 -75q131 -81 131 -231q0 -19 -2 -38zM625 520h-230l-90 -256q-7 -20 -7 -38q0 -86 161 -86q18 0 33 1z" />
    <glyph glyph-name="glyph263" horiz-adv-x="1444" 
d="M1448 680q-33 -160 -252 -160h-242q64 -73 64 -188q0 -182 -159 -277q-134 -80 -341 -82q-209 -1 -330 98q-118 96 -118 257q0 167 135 267q120 89 287 89q31 0 61 -4l-150 -412q-9 -25 -9 -47q0 -44 36 -70q32 -24 78 -24q116 0 149 98l23 66q-67 41 -83 62
q-34 42 -34 126q0 78 61 135q70 66 187 66h637z" />
    <glyph glyph-name="glyph264" horiz-adv-x="1391" 
d="M1835 680q-30 -160 -209 -160h-690l45 -278q3 -19 3 -37q0 -94 -77 -149.5t-202 -55.5h-500q-96 0 -163 61t-67 148t67.5 149t162.5 62t162 -62t67 -149q0 -25 -6 -49h117q83 0 83 58q0 10 -3 30l-33 196q-6 33 -6 61q0 175 219 175h1030z" />
    <glyph glyph-name="glyph265" horiz-adv-x="1206" 
d="M1208 160q-4 -72 -86 -119q-71 -41 -149 -41h-760q-219 0 -219 133q0 73 53 112q48 36 123 36q106 0 293 -119q53 66 53 141q0 81 -63.5 222t-65.5 204l246 262q166 -28 166 -151q0 -69 -43 -133l75 -198q46 -123 46 -202q0 -86 -68 -147h399z" />
    <glyph glyph-name="glyph266" horiz-adv-x="1104" 
d="M1106 160q-5 -67 -79 -115q-70 -45 -157 -45h-514q-59 0 -95 41q-31 36 -31 82q0 21 8 37q121 14 163 82q19 29 19 66q0 59 -43 122l-455 -430h-223l620 594q-32 57 -34 135q-2 74 245 262q166 -28 166 -151q0 -72 -43 -133l75 -196q46 -126 46 -204q0 -86 -67 -147h399z
" />
    <glyph glyph-name="glyph267" horiz-adv-x="1159" 
d="M1153 160q-18 -82 -89 -125q-58 -35 -130 -35h-381q-164 0 -164 106q0 24 10 54l131 360h-200l-88 -221q-67 -169 -113 -215q-83 -84 -272 -84h-121l59 160h115q80 0 125 121l88 239q-66 15 -103 63t-37 110q0 92 76 157q87 74 242 74h162l-84 -244h551l-182 -520h405z
" />
    <glyph glyph-name="glyph268" horiz-adv-x="967" 
d="M963 680l-555 -680h-400l-43 680h363l6 -492l375 492h254z" />
    <glyph glyph-name="glyph269" horiz-adv-x="1622" 
d="M2079 680q-26 -88 -115 -130q-64 -30 -135 -30h-279l-125 -360q-74 -160 -249 -160h-506q-133 0 -148 88q-73 -88 -211 -88h-178q-148 0 -148 105q0 25 11 55l182 520h363l-187 -520h174l187 520h358l-182 -520h170l186 520h832z" />
    <glyph glyph-name="glyph270" horiz-adv-x="1061" 
d="M1518 680q-26 -88 -115 -130q-64 -30 -135 -30h-439l-176 -129l260 -391h-405l-129 190l-262 -190h-314l469 346l-227 334h418l86 -129l174 129h795z" />
    <glyph glyph-name="glyph271" horiz-adv-x="590" 
d="M500 -63l-129 -365q-30 -84 -141 -139q-107 -54 -230 -54h-1946q58 158 224 231q120 52 268 52h1448q83 0 131 52q46 49 98 190q15 38 15 58q0 2 -1 3q-1 35 -63 35h-491l124 160h568q149 0 149 -109q0 -47 -24 -114z" />
    <glyph glyph-name="glyph272" horiz-adv-x="1382" 
d="M1425 160q-25 -88 -115 -130q-63 -30 -134 -30h-379q-148 0 -148 104q0 26 10 56l127 360h-319l-270 -774h-363l275 774h-230l66 160h221l72 190q99 264 298 375q171 94 455 94q375 0 375 -245q0 -99 -81 -169.5t-189 -70.5t-185 70t-77 170q0 33 10 67q-9 3 -19 3
q-52 0 -112 -69q-55 -63 -86 -145l-103 -270h680l-182 -520h403z" />
    <glyph glyph-name="glyph273" horiz-adv-x="1430" 
d="M1438 160q-26 -88 -115 -130q-64 -30 -135 -30h-385q-149 0 -149 101q0 26 12 59l264 747q-96 76 -96 187q0 33 10 67q-9 3 -19 3q-52 0 -112 -69q-55 -63 -86 -145l-103 -270h224l-66 -160h-215l-270 -774h-363l275 774h-230l66 160h221l72 190q99 264 298 375
q171 94 455 94q375 0 375 -245q0 -87 -68 -158l-280 -776h420z" />
    <glyph glyph-name="glyph274" horiz-adv-x="1169" 
d="M1134 1033q0 -223 -154 -366q-159 -149 -420 -149q-210 0 -337 108t-127 285q0 221 155 366q160 150 420 150q210 0 336.5 -108.5t126.5 -285.5zM783 1096q0 175 -114 175q-112 0 -177 -172q-49 -129 -49 -256q0 -174 116 -174q112 0 176 170q48 129 48 257z" />
    <glyph glyph-name="glyph275" horiz-adv-x="1106" 
d="M1061 1407l-83 -209h-346l-44 -107q187 0 285 -42q145 -62 145 -222q0 -100 -96 -188q-169 -154 -489 -154q-331 0 -331 171q0 68 65 110q56 37 128 37q76 0 139 -41q72 -47 72 -120q0 -17 -2 -32q69 8 110 62q39 51 39 122q0 152 -275 152h-167l166 461h684z" />
    <glyph glyph-name="glyph276" horiz-adv-x="1110" 
d="M1078 851q0 -179 -171 -279q-143 -84 -335 -84q-181 0 -314 79q-164 98 -164 279q0 194 190 367q145 132 318 194h302q-216 -139 -301 -225q-150 -153 -150 -330q0 -87 58 -143.5t145 -56.5q135 0 159 117q-74 1 -133 39q-68 44 -68 114q0 71 68 115q60 38 134 38
q110 0 182 -56q80 -61 80 -168z" />
    <glyph glyph-name="glyph277" horiz-adv-x="973" 
d="M935 1407l-184 -418h144l-73 -150h-141l-147 -332h-295l151 332h-163l74 150h152l96 209h-300l-28 -67h-162l109 276h767z" />
    <glyph glyph-name="glyph278" horiz-adv-x="1085" 
d="M1049 1181q6 -115 -131 -191q90 -83 96 -181q8 -142 -144 -229q-134 -76 -312 -76q-472 0 -489 305q-9 166 191 262q-44 50 -47 110q-7 119 134 192q119 63 269 63q170 0 285 -55q140 -67 148 -200zM742 1210q-4 67 -83 67q-73 0 -97 -69l-52 -147h80q72 0 104 32
q18 19 43 86q6 16 5 31zM688 946h-126q-81 0 -116 -60l-44 -121q-7 -19 -6 -36q2 -32 35 -52q30 -19 70 -19q90 0 117 79z" />
    <glyph glyph-name="glyph279" horiz-adv-x="1022" 
d="M956 1104q0 -206 -166 -364q-134 -128 -355 -209h-281q241 149 315 266q-154 3 -263 80q-123 87 -123 234q0 164 147 257q126 79 299 79q181 0 295 -79q132 -91 132 -264zM662 1183q0 134 -119 134q-71 0 -108 -71q-29 -56 -29 -135q0 -144 155 -165q101 88 101 237z" />
    <glyph glyph-name="glyph280" horiz-adv-x="1169" 
d="M1052 495q0 -223 -154 -366q-159 -149 -420 -149q-210 0 -337 108t-127 285q0 221 155 366q160 150 420 150q210 0 336.5 -108.5t126.5 -285.5zM701 558q0 175 -114 175q-112 0 -177 -172q-49 -129 -49 -256q0 -174 116 -174q112 0 176 170q48 129 48 257z" />
    <glyph glyph-name="glyph281" horiz-adv-x="731" 
d="M597 714l-269 -714h-317l253 692h-219l112 207h326q129 0 129 -112q0 -34 -15 -73z" />
    <glyph glyph-name="glyph282" horiz-adv-x="1116" 
d="M987 683q0 -177 -176 -310q-129 -96 -318 -150h404l-77 -222h-793l53 183q163 56 344 183q227 159 227 283q0 128 -98 128q-11 0 -22 -2q3 -17 3 -27q0 -71 -69 -115q-60 -39 -133 -39q-74 0 -133 39q-68 45 -68 115q0 101 155 147q103 30 244 30q457 0 457 -243z" />
    <glyph glyph-name="glyph283" horiz-adv-x="1087" 
d="M955 898l-216 -322q76 -34 131 -98q64 -72 64 -146q0 -188 -177 -282q-154 -82 -413 -82q-114 0 -200 30q-124 44 -124 137q0 71 68 115q59 39 133 39q75 0 134 -39q69 -44 69 -115q0 -18 -8 -38q83 4 133 50q54 47 54 127q0 89 -93 153q-81 55 -177 62l152 200h-336
l74 209h732z" />
    <glyph glyph-name="glyph284" horiz-adv-x="1182" 
d="M1104 473l-83 -222h-196l-88 -252h-300l92 252h-377q-119 0 -119 74q0 35 27 61l235 227q-59 11 -99 49q-45 41 -45 98q0 74 64 115q55 35 133 35q82 0 142 -39q68 -45 68 -124q0 -64 -57 -118l-165 -156h262l160 426h292l-150 -426h204z" />
    <glyph glyph-name="glyph285" horiz-adv-x="1106" 
d="M979 899l-83 -209h-346l-44 -107q187 0 285 -42q145 -62 145 -222q0 -100 -96 -188q-169 -154 -489 -154q-331 0 -331 171q0 68 65 110q56 37 128 37q76 0 139 -41q72 -47 72 -120q0 -17 -2 -32q69 8 110 62q39 51 39 122q0 152 -275 152h-167l166 461h684z" />
    <glyph glyph-name="glyph286" horiz-adv-x="1110" 
d="M996 343q0 -179 -171 -279q-143 -84 -335 -84q-181 0 -314 79q-164 98 -164 279q0 194 190 367q145 132 318 194h302q-216 -139 -301 -225q-150 -153 -150 -330q0 -87 58 -143.5t145 -56.5q135 0 159 117q-74 1 -133 39q-68 44 -68 114q0 71 68 115q60 38 134 38
q110 0 182 -56q80 -61 80 -168z" />
    <glyph glyph-name="glyph287" horiz-adv-x="973" 
d="M853 899l-184 -418h144l-73 -150h-141l-147 -332h-295l151 332h-163l74 150h152l96 209h-300l-28 -67h-162l109 276h767z" />
    <glyph glyph-name="glyph288" horiz-adv-x="1085" 
d="M967 653q6 -115 -131 -191q90 -83 96 -181q8 -142 -144 -229q-134 -76 -312 -76q-472 0 -489 305q-9 166 191 262q-44 50 -47 110q-7 119 134 192q119 63 269 63q170 0 285 -55q140 -67 148 -200zM660 682q-4 67 -83 67q-73 0 -97 -69l-52 -147h80q72 0 104 32
q18 19 43 86q6 16 5 31zM606 418h-126q-81 0 -116 -60l-44 -121q-7 -19 -6 -36q2 -32 35 -52q30 -19 70 -19q90 0 117 79z" />
    <glyph glyph-name="glyph289" horiz-adv-x="1022" 
d="M874 576q0 -206 -166 -364q-134 -128 -355 -209h-281q241 149 315 266q-154 3 -263 80q-123 87 -123 234q0 164 147 257q126 79 299 79q181 0 295 -79q132 -91 132 -264zM580 655q0 134 -119 134q-71 0 -108 -71q-29 -56 -29 -135q0 -144 155 -165q101 88 101 237z" />
    <glyph glyph-name="Euro" unicode="&#x20ac;" horiz-adv-x="1546" 
d="M1014 549l-119 -219h-218q123 -171 423 -171l268 1q-18 -98 -105 -135q-60 -26 -176 -26h-86q-636 0 -779 331h-290l119 219h130q0 54 10 110h-162l118 220h124l10 18q128 233 370 372q239 138 508 138h144q96 0 172.5 -74t76.5 -170q0 -104 -81 -174.5t-187 -70.5
q-107 0 -187 68q-83 72 -83 177q0 33 8 60q-97 0 -208 -115q-103 -107 -143 -229h443l-119 -220h-381q-9 -28 -9 -78q0 -16 1 -32h408z" />
  </font>
</defs>
</svg>
